Buscar
 
 

Resultados por:
 


Rechercher Búsqueda avanzada

Palabras claves

Últimos temas
Julio 2017
LunMarMiérJueVieSábDom
     12
3456789
10111213141516
17181920212223
24252627282930
31      

Calendario Calendario

Compañeros

Crear foro



Compañeros

Crear foro




Los juegos del hambre (2012)(Brrip)(Castellano)(FR,RG)

Ver el tema anterior Ver el tema siguiente Ir abajo

Los juegos del hambre (2012)(Brrip)(Castellano)(FR,RG)

Mensaje  nueve93 el Lun Ago 20, 2012 5:45 am





Informacion

Titulo original: The Hunger Games
Titulo español: Los juegos del hambre
Idioma:Castellano
País: Estados Unidos
Año: 2012
Subtitulos: [object HTMLInputElement]
Género: Ciencia Ficción
Tamaño: 1.9 Gb
Calidad Imagen: Brrip
Formato: Avi

Sinopsis

Lo que en el pasado fueron los Estados Unidos, ahora es una nación llamada Panem: un fastuoso Capitolio ejerce un control riguroso sobre los doce distritos que lo rodean y que están aislados entre sí. Cada distrito se ve obligado a enviar anualmente un chico y una chica entre los doce y los dieciocho años para que participen en los Hunger Games, que son transmitidos en directo por la televisión. Se trata de una lucha a muerte, en la que sólo puede haber un superviviente. Katniss Everdeen, una joven de dieciséis años, decide sustituir a su hermana en los juegos; pero para ella, que ya ha visto la muerte de cerca, la lucha por la supervivencia es su segunda naturaleza.

Captura




Código:


General
Complete name                            : /disco2/nueveeuh/public_html/rapidleech/files/Descargas-Directas/LJDH.BRRip.avi
Format                                  : AVI
Format/Info                              : Audio Video Interleave
File size                                : 1.93 GiB
Duration                                : 2h 22mn
Overall bit rate                        : 1 941 Kbps
Writing application                      : VirtualDubMod 1.5.10.2 (build 2540/release)
Writing library                          : VirtualDubMod build 2540/release

Video
ID                                      : 0
Format                                  : MPEG-4 Visual
Format settings, BVOP                    : No
Format settings, QPel                    : No
Format settings, GMC                    : No warppoints
Format settings, Matrix                  : Default (H.263)
Codec ID                                : DX50
Codec ID/Hint                            : DivX 5
Duration                                : 2h 22mn
Bit rate                                : 1 484 Kbps
Width                                    : 720 pixels
Height                                  : 304 pixels
Display aspect ratio                    : 2.35:1
Frame rate                              : 23.976 fps
Color space                              : YUV
Chroma subsampling                      : 4:2:0
Bit depth                                : 8 bits
Scan type                                : Progressive
Compression mode                        : Lossy
Bits/(Pixel*Frame)                      : 0.283
Stream size                              : 1.48 GiB (76%)
Writing library                          : DivX 3013

Audio
ID                                      : 1
Format                                  : AC-3
Format/Info                              : Audio Coding 3
Mode extension                          : CM (complete main)
Codec ID                                : 2000
Duration                                : 2h 22mn
Bit rate mode                            : Constant
Bit rate                                : 448 Kbps
Channel(s)                              : 2 channels
Channel positions                        : Front: L R
Sampling rate                            : 48.0 KHz
Bit depth                                : 16 bits
Compression mode                        : Lossy
Stream size                              : 457 MiB (23%)
Alignment                                : Split accross interleaves
Interleave, duration                    : 42 ms (1.00 video frame)
Interleave, preload duration            : 500 ms




Links intercambiables




http://1f935c32.linkbucks.com
http://1e27d0d9.linkbucks.com



LJDH.BRRip.avi.part1.rar
LJDH.BRRip.avi.part2.rar


nueve93

Mensajes : 98
Fecha de inscripción : 07/10/2011

Ver perfil de usuario

Volver arriba Ir abajo

Ver el tema anterior Ver el tema siguiente Volver arriba

- Temas similares

 
Permisos de este foro:
No puedes responder a temas en este foro.