Buscar
 
 

Resultados por:
 


Rechercher Búsqueda avanzada

Noviembre 2017
LunMarMiérJueVieSábDom
  12345
6789101112
13141516171819
20212223242526
27282930   

Calendario Calendario

Compañeros

Crear foro



Compañeros

Crear foro




Melancholia (DVDScreener))(VOSE)(Ciencia ficcion) (2011)

Ver el tema anterior Ver el tema siguiente Ir abajo

Melancholia (DVDScreener))(VOSE)(Ciencia ficcion) (2011)

Mensaje  nueve93 el Miér Oct 12, 2011 2:24 pm





Ficha Tecnica

Titulo original: Melancholia
Titulo español: Melancolía
Idioma: Ingles
País: Dinamarca / Suecia / Alemania / Francia
Año: 2011
Subtitulos: Español pegados al vídeo
Género: Drama / Ciencia Ficción
Tamaño: 699MB aprox.
Calidad Imagen: DVDSCR
Formato: AVI

Sinopsis

La Película “Melancholia”, esta protagonizado por Kirsten Dunst (Justin) y Alexander Skarsgård (Michael) quienes están celebrando su fiesta de matrimonio en la casa de la hermana de Justin, durante la fiesta se da a conocer al mundo que el reciente planeta Melancholia se dirige rumbo a la Tierra, en donde los habitantes de la casa sufrirán un enfoque psicológico cada vez mas fuerte a medida que el planeta Melancholia se valla acercando a la Tierra.


Capturas



Codigo Pelicula

Spoiler:


General

Complete name : files/Melancholia_nueve93.avi
Format : AVI
Format/Info : Audio Video Interleave
File size : 700 MiB
Duration : 2h 9mn
Overall bit rate : 754 Kbps
Writing application : VirtualDubMod 1.5.10.2 (build 2542/release)
Writing library : VirtualDubMod build 2542/release

Video

ID : 0
Format : MPEG-4 Visual
Format profile : Advanced Simple@L5
Format settings, BVOP : Yes
Format settings, QPel : No
Format settings, GMC : No warppoints
Format settings, Matrix : Default (H.263)
Muxing mode : Packed bitstream
Codec ID : XVID
Codec ID/Hint : XviD
Duration : 2h 9mn
Bit rate : 629 Kbps
Width : 608 pixels
Height : 256 pixels
Display aspect ratio : 2.35:1
Frame rate : 25.000 fps
Color space : YUV
Chroma subsampling : 4:2:0
Bit depth : 8 bits
Scan type : Progressive
Bits/(Pixel*Frame) : 0.162
Stream size : 584 MiB (83%)
Writing library : XviD 64

Audio

ID : 1
Format : MPEG Audio
Format version : Version 1
Format profile : Layer 3
Mode : Joint stereo
Mode extension : MS Stereo
Codec ID : 55
Codec ID/Hint : MP3
Duration : 2h 9mn
Bit rate mode : Variable
Bit rate : 112 Kbps
Channel(s) : 2 channels
Sampling rate : 44.1 KHz
Stream size : 105 MiB (15%)
Alignment : Aligned on interleaves
Interleave, duration : 26 ms (0.65 video frame)
Interleave, preload duration : 525 ms
Writing library : LAME3.92
Encoding settings : -m j -V 4 -q 2 -lowpass 16 --abr 112





Código:
http://www.fileserve.com/file/nmKyG8C

http://www.uploadstation.com/file/MzXfUSU



nueve93

Mensajes : 217
Fecha de inscripción : 07/10/2011

Ver perfil de usuario

Volver arriba Ir abajo

Ver el tema anterior Ver el tema siguiente Volver arriba


 
Permisos de este foro:
No puedes responder a temas en este foro.