Buscar
 
 

Resultados por:
 


Rechercher Búsqueda avanzada

Palabras claves

Basico  Excel  Ashlynn  Intermedio  College  2013  Udemy  

Últimos temas
Agosto 2017
LunMarMiérJueVieSábDom
 123456
78910111213
14151617181920
21222324252627
28293031   

Calendario Calendario

Compañeros

Crear foro



Compañeros

Crear foro




Juego De Asesinos [DVDRip][Accion] [Castellano] [2011]

Ver el tema anterior Ver el tema siguiente Ir abajo

Juego De Asesinos [DVDRip][Accion] [Castellano] [2011]

Mensaje  nueve93 el Dom Oct 09, 2011 3:26 pm





Ficha Tecnica

Título Original: Assassination Games (AKA Weapon)
Año: 2011
Duración: 100 min.
País: Estados Unidos
Director: Ernie Barbarash
Guión: Aaron Rahsaan Thomas
Música: Neal Acree
Fotografía: Phil Parmet
Reparto: Jean-Claude Van Damme, Scott Adkins, Kevin Chapman, Ivan Kaye, Valentin Teodosiu, Alin Panc, Serban Celea, Michael Higgs, Kristopher Van Varenberg, Bianca Van Varenberg
Productora: Motion Picture Corporation of America (MPCA) / Mediapro Studios
Género: Acción. Thriller
DVDRip | AVI | 1.5 GB | Español España | Acción | 2011

Sinopsis

Dos asesinos rivales, los mejores del mundo, pero desconocidos el uno al otro, tendrán que unir sus fuerzas para luchar en contra de un cartel de la droga apoyado por la DEA.

Capturas



Codigo Pelicula

Spoiler:


General

Complete name : files/AsesinosDVDRipCastellano.avi
Format : AVI
Format/Info : Audio Video Interleave
File size : 1.53 GiB
Duration : 1h 39mn
Overall bit rate : 2 190 Kbps
Writing application : VirtualDubMod 1.5.10.3 | www.virtualdub-fr.org || (build 2550/release)
Writing library : VirtualDubMod build 2550/release

Video

ID : 0
Format : MPEG-4 Visual
Format profile : Advanced Simple@L5
Format settings, BVOP : Yes
Format settings, QPel : Yes
Format settings, GMC : No warppoints
Format settings, Matrix : Default (H.263)
Muxing mode : Packed bitstream
Codec ID : XVID
Codec ID/Hint : XviD
Duration : 1h 39mn
Bit rate : 1 797 Kbps
Width : 720 pixels
Height : 384 pixels
Display aspect ratio : 1.875
Frame rate : 23.976 fps
Color space : YUV
Chroma subsampling : 4:2:0
Bit depth : 8 bits
Scan type : Progressive
Bits/(Pixel*Frame) : 0.271
Stream size : 1.25 GiB (82%)
Writing library : XviD 1.2.1 (UTC 2008-12-04)

Audio

ID : 1
Format : AC-3
Format/Info : Audio Coding 3
Mode extension : CM (complete main)
Codec ID : 2000
Duration : 1h 39mn
Bit rate mode : Constant
Bit rate : 384 Kbps
Channel(s) : 6 channels
Channel positions : Front: L C R, Side: L R, LFE
Sampling rate : 48.0 KHz
Bit depth : 16 bits
Stream size : 274 MiB (18%)
Alignment : Split accross interleaves
Interleave, duration : 42 ms (1.00 video frame)
Interleave, preload duration : 500 ms





Código:
http://ul.to/61quf89d

http://www.filesonic.com/file/2464475821


nueve93

Mensajes : 98
Fecha de inscripción : 07/10/2011

Ver perfil de usuario

Volver arriba Ir abajo

Ver el tema anterior Ver el tema siguiente Volver arriba

- Temas similares

 
Permisos de este foro:
No puedes responder a temas en este foro.