Buscar
 
 

Resultados por:
 


Rechercher Búsqueda avanzada

Palabras claves

excel  

Últimos temas
Septiembre 2017
LunMarMiérJueVieSábDom
    123
45678910
11121314151617
18192021222324
252627282930 

Calendario Calendario

Compañeros

Crear foro



Compañeros

Crear foro




Faces in the Crowd [DVDRip] [VOSE][Terror] [2011]

Ver el tema anterior Ver el tema siguiente Ir abajo

Faces in the Crowd [DVDRip] [VOSE][Terror] [2011]

Mensaje  nueve93 el Dom Oct 09, 2011 2:31 pm





Ficha Tecnica

Título Original: Faces in the Crowd
Año: 2011
Duración: 92 min.
País: Canada
Director: Julien Magnat
Guión: Julien Magnat
Fotografía: Rene Ohashi
Reparto: Milla Jovovich, Julian McMahon, Michael Shanks, David Atrakchi, Sarah Wayne Callies, Marianne Faithful
Productora: Coproducción Canadá-Francia-EEUU; Forecast Pictures / Minds Eye Entertainment / Radar Films
Género: Thriller. Terror | Thriller psicológico
DVDRip | AVI | 701 MB | Subs. Español (.SRT) | Thriller | 2011

Sinopsis

Un asesino en serie tiene atemorizada a la ciudad. Una espectadora inocente presencia su último ataque, pero al huir cae de un puente quedando inconsciente. Cuando despierte en el hospital, no puede reconocer a su propia familia, ni a su novio, ni siquiera su propio reflejo en el espejo. Se le acaba diagnosticando prosopagnosia, un desorden neurológico real causado por una lesión en el lóbulo temporal que impide comparar la cara que estamos viendo con otra cara almacenada en la memoria, con lo que ella es incapaz de reconocer la misma cara dos veces, cada vez que mira a alguien es como si fuera nuevo para ella. Pero ella es la única testigo y el asesino está al acecho.

Capturas



Codigo Pelicula

Spoiler:


General

Complete name : files/Faces.in.the.Crowd.2011.DVDRip.XviD.avi
Format : AVI
Format/Info : Audio Video Interleave
File size : 702 MiB
Duration : 1h 42mn
Overall bit rate : 957 Kbps
Movie name : Faces.in.the.Crowd.2011.BDRip.XviD
Director : WwW.IntercambiosVirtuales.ORG
Genre : Thriller
Recorded date : 08-10-2011
Writing application : VirtualDubMod 1.5.10.2 (build 2542/release)
Writing library : VirtualDubMod build 2542/release
Copyright : WwW.IntercambiosVirtuales.ORG

Video

ID : 0
Format : MPEG-4 Visual
Format profile : Advanced Simple@L5
Format settings, BVOP : Yes
Format settings, QPel : No
Format settings, GMC : No warppoints
Format settings, Matrix : Default (H.263)
Codec ID : XVID
Codec ID/Hint : XviD
Duration : 1h 42mn
Bit rate : 820 Kbps
Width : 640 pixels
Height : 272 pixels
Display aspect ratio : 2.35:1
Frame rate : 23.976 fps
Color space : YUV
Chroma subsampling : 4:2:0
Bit depth : 8 bits
Scan type : Progressive
Bits/(Pixel*Frame) : 0.196
Stream size : 601 MiB (86%)
Writing library : XviD 1.2.1 (UTC 2008-12-04)

Audio

ID : 1
Format : MPEG Audio
Format version : Version 1
Format profile : Layer 3
Mode : Joint stereo
Mode extension : MS Stereo
Codec ID : 55
Codec ID/Hint : MP3
Duration : 1h 42mn
Bit rate mode : Constant
Bit rate : 128 Kbps
Channel(s) : 2 channels
Sampling rate : 48.0 KHz
Stream size : 93.9 MiB (13%)
Alignment : Aligned on interleaves
Interleave, duration : 42 ms (1.00 video frame)
Interleave, preload duration : 504 ms
Writing library : LAME3.98r
Encoding settings : -m j -V 4 -q 2 -lowpass 17 -b 128



Código:
http://ul.to/xbaue48y

http://www.filesonic.com/file/2464058904

Subtitulos

Código:
http://ul.to/ke3pn0uf

http://www.filesonic.com/file/2464141184

nueve93

Mensajes : 98
Fecha de inscripción : 07/10/2011

Ver perfil de usuario

Volver arriba Ir abajo

Ver el tema anterior Ver el tema siguiente Volver arriba

- Temas similares

 
Permisos de este foro:
No puedes responder a temas en este foro.