Buscar
 
 

Resultados por:
 


Rechercher Búsqueda avanzada

Palabras claves

excel  

Septiembre 2017
LunMarMiérJueVieSábDom
    123
45678910
11121314151617
18192021222324
252627282930 

Calendario Calendario

Compañeros

Crear foro



Compañeros

Crear foro




2 22 [2017] FullHD 1080p [Ing-Lat]

Ver el tema anterior Ver el tema siguiente Ir abajo

2 22 [2017] FullHD 1080p [Ing-Lat]

Mensaje  pomposos el Mar Sep 19, 2017 7:28 am




Titulo original: 2:22
Ano: 2017
Duracion: 99 min.
Pais: United States
Director: Paul Currie
Guion: Nathan Parker, Todd Stein
Productora: Coproduccion Estados Unidos-Australia; Lightstream Pictures / Pandemonium / Screen Australia
Genero: Thriller
Sinopsis: Un controlador aereo vive una vida desordenada despues de que es casi responsable de una colision entre dos aviones causada por una misteriosa luz a las 2:22 pm. Este evento lo lleva a conocer una mujer con la que todo parece indicar su vida esta entrelazada desde hace mucho tiempo atras.
Código:
http://www.imdb.com/title/tt1131724
Trailer
https://youtu.be/MAas4qEmKTk

Código:

General
Unique ID                  : 170756364406620168471854386172715245909 (0x80767AC32B3C153E87A4056A73AEA155)
Format                      : Matroska
Format version              : Version 4 / Version 2
File size                  : 7.81 GiB
Duration                    : 1 h 38 min
Overall bit rate            : 11.3 Mb/s
Encoded date                : UTC 2017-09-18 06:58:13
Writing application        : mkvmerge v9.9.0 (Pick Up) 64bit
Writing library            : libebml v1.3.4 + libmatroska v1.4.5
Video
ID                          : 1
Format                      : AVC
Format/Info                : Advanced Video Codec
Format profile              : High@L4.1
Format settings, CABAC      : Yes
Format settings, ReFrames  : 5 frames
Codec ID                    : V_MPEG4/ISO/AVC
Duration                    : 1 h 38 min
Bit rate                    : 9 567 kb/s
Width                      : 1 920 pixels
Height                      : 808 pixels
Display aspect ratio        : 2.40:1
Frame rate mode            : Constant
Frame rate                  : 23.976 FPS
Color space                : YUV
Chroma subsampling          : 4:2:0
Bit depth                  : 8 bits
Scan type                  : Progressive
Bits/(Pixel*Frame)          : 0.257
Stream size                : 6.59 GiB (84%)
Writing library            : x264 core 152 r2851 ba24899
Language                    : English
Default                    : Yes
Forced                      : No
Audio #1
ID                          : 2
Format                      : AC-3
Format/Info                : Audio Coding 3
Mode extension              : CM (complete main)
Format settings, Endianness : Big
Codec ID                    : A_AC3
Duration                    : 1 h 38 min
Bit rate mode              : Constant
Bit rate                    : 256 kb/s
Channel(s)                  : 2 channels
Channel positions          : Front: L R
Sampling rate              : 48.0 kHz
Frame rate                  : 31.250 FPS (1536 spf)
Bit depth                  : 16 bits
Compression mode            : Lossy
Delay relative to video    : 7 s 12 ms
Stream size                : 181 MiB (2%)
Title                      : AC3 2.0 256kbps DVD
Language                    : Latin
Default                    : Yes
Forced                      : No
Audio #2
ID                          : 3
Format                      : DTS
Format/Info                : Digital Theater Systems
Mode                        : 16
Format settings, Endianness : Big
Codec ID                    : A_DTS
Duration                    : 1 h 38 min
Bit rate mode              : Constant
Bit rate                    : 1 509 kb/s
Channel(s)                  : 6 channels
Channel positions          : Front: L C R, Side: L R, LFE
Sampling rate              : 48.0 kHz
Frame rate                  : 93.750 FPS (512 spf)
Bit depth                  : 24 bits
Compression mode            : Lossy
Stream size                : 1.04 GiB (13%)
Title                      : DTS 5.1 1509kbps Bluray
Language                    : English
Default                    : No
Forced                      : No
Text
ID                          : 4
Format                      : UTF-8
Codec ID                    : S_TEXT/UTF8
Codec ID/Info              : UTF-8 Plain Text
Duration                    : 1 h 32 min
Bit rate                    : 45 b/s
Count of elements          : 1025
Stream size                : 30.8 KiB (0%)
Language                    : Latin
Default                    : Yes
Forced                      : No







http://lupaste.com/?v=24338

pomposos

Mensajes : 1573
Fecha de inscripción : 24/10/2011

Ver perfil de usuario

Volver arriba Ir abajo

Ver el tema anterior Ver el tema siguiente Volver arriba

- Temas similares

 
Permisos de este foro:
No puedes responder a temas en este foro.