Resacon 2 [VHS-Screener][Español][Comedia][2011]

Ver el tema anterior Ver el tema siguiente Ir abajo

Resacon 2 [VHS-Screener][Español][Comedia][2011]

Mensaje  nueve93 el Dom Oct 09, 2011 12:54 pm





Ficha Tecnica

TÍTULO ORIGINAL: The hangover: Part 2.
AÑO: 2011
GENERO: Comedia.
REPARTO: Bradley Cooper (Phil), Zach Galifianakis (Alan), Ed Helms (Stu), Justin Bartha (Doug), Jeffrey Tambor (Sid Garner), Ken Jeong (Sr. Chow), Mike Tyson (el mismo), Jamie Chung (Lauren), Paul Giamatti (Kingsley), Mason Lee (Teddy), Sasha Barrese (Tracy).

Sinopsis

En este “Resacon 2″, secuela de la divertidisima “Resacon en Las Vegas”, Phil, Stu, Alan y Doug viajan a la exotica Tailandia para asistir a la boda de Stu. Despues de la inolvidable despedida de soltero en Las Vegas, Stu no quiere asumir ningun riesgo y ha decidido ofrecer un almuerzo tranquilo y contenido antes de la boda. No obstante, las cosas no siempre salen como esta previsto. Quizas lo que ocurre en Las Vegas se queda en Las Vegas, pero uno ni siquiera puede imaginar lo que sucedera en Bangkok

Capturas



Codigo Pelicula

Spoiler:

General

Complete name : files/Resacon.2.VHSscreener.Castellano_nueve93.avi
Format : AVI
Format/Info : Audio Video Interleave
File size : 1.55 GiB
Duration : 1h 41mn
Overall bit rate : 2 174 Kbps
Writing application : VirtualDubMod 1.5.10.2 (build 2540/release)
Writing library : VirtualDubMod build 2540/release

Video

ID : 0
Format : MPEG-4 Visual
Format profile : Simple@L3
Format settings, BVOP : No
Format settings, QPel : No
Format settings, GMC : No warppoints
Format settings, Matrix : Default (H.263)
Codec ID : XVID
Codec ID/Hint : XviD
Duration : 1h 41mn
Bit rate : 2 066 Kbps
Width : 640 pixels
Height : 480 pixels
Display aspect ratio : 4:3
Frame rate : 29.970 fps
Original frame rate : 29.000 fps
Color space : YUV
Chroma subsampling : 4:2:0
Bit depth : 8 bits
Scan type : Progressive
Bits/(Pixel*Frame) : 0.224
Stream size : 1.47 GiB (95%)
Writing library : XviD 1.2.1 (UTC 2008-12-04)

Audio

ID : 1
Format : MPEG Audio
Format version : Version 1
Format profile : Layer 3
Codec ID : 55
Codec ID/Hint : MP3
Duration : 1h 41mn
Bit rate mode : Constant
Bit rate : 96.0 Kbps
Channel(s) : 2 channels
Sampling rate : 44.1 KHz
Stream size : 69.9 MiB (4%)
Alignment : Split accross interleaves
Interleave, duration : 33 ms (1.00 video frame)
Interleave, preload duration : 500 ms



Código:
http://www.filesonic.com/file/2463256104/Resacon.2.VHSscreener.Castellano_nueve93.avi

http://ul.to/dtxr9yxe

nueve93

Mensajes : 98
Fecha de inscripción : 07/10/2011

Ver perfil de usuario

Volver arriba Ir abajo

Ver el tema anterior Ver el tema siguiente Volver arriba

- Temas similares

 
Permisos de este foro:
No puedes responder a temas en este foro.