Buscar
 
 

Resultados por:
 


Rechercher Búsqueda avanzada

Palabras claves

Julio 2017
LunMarMiérJueVieSábDom
     12
3456789
10111213141516
17181920212223
24252627282930
31      

Calendario Calendario

Compañeros

Crear foro



Compañeros

Crear foro




Crazy, Stupid, Love [DVDScreener][Español][Comedia][2011]

Ver el tema anterior Ver el tema siguiente Ir abajo

Crazy, Stupid, Love [DVDScreener][Español][Comedia][2011]

Mensaje  nueve93 el Dom Oct 09, 2011 12:00 pm





Ficha Tecnica

AÑO: 2011
GENERO: Comedia. Romance. Drama | Familia
REPARTO: FOTOGRAFÍA Andrew Dunn
REPARTO Steve Carell, Ryan Gosling, Julianne Moore, Emma Stone, Jonah Bobo, Marisa Tomei,
Kevin Bacon , Joey King, Crystal Reed, Liza Lapira, John Carroll Lynch, Josh Groban.

Sinopsis

A Cal (Steve Carell) y a Emily Weawer (Julianne Moore) una crisis matrimonial los
ha conducido a la separacion. A partir de ese momento, Cal tendra que pasar mas tiempo con sus hijos, a los que apenas conoce.

Capturas



Codigo Pelicula

Spoiler:

General

Complete name : files/Crazy.Stupid.VHSScreener.Castellano_nueve93.avi
Format : AVI
Format/Info : Audio Video Interleave
File size : 1.76 GiB
Duration : 1h 57mn
Overall bit rate : 2 139 Kbps
Writing application : VirtualDubMod 1.5.10.2 (build 2540/release)
Writing library : VirtualDubMod build 2540/release

Video

ID : 0
Format : MPEG-4 Visual
Format profile : Simple@L3
Format settings, BVOP : No
Format settings, QPel : No
Format settings, GMC : No warppoints
Format settings, Matrix : Default (H.263)
Codec ID : XVID
Codec ID/Hint : XviD
Duration : 1h 57mn
Bit rate : 2 031 Kbps
Width : 640 pixels
Height : 480 pixels
Display aspect ratio : 4:3
Frame rate : 29.970 fps
Original frame rate : 29.000 fps
Color space : YUV
Chroma subsampling : 4:2:0
Bit depth : 8 bits
Scan type : Progressive
Bits/(Pixel*Frame) : 0.221
Stream size : 1.67 GiB (95%)
Writing library : XviD 1.2.1 (UTC 2008-12-04)

Audio

ID : 1
Format : MPEG Audio
Format version : Version 1
Format profile : Layer 3
Codec ID : 55
Codec ID/Hint : MP3
Duration : 1h 57mn
Bit rate mode : Constant
Bit rate : 96.0 Kbps
Channel(s) : 2 channels
Sampling rate : 44.1 KHz
Stream size : 81.0 MiB (4%)
Alignment : Split accross interleaves
Interleave, duration : 33 ms (1.00 video frame)
Interleave, preload duration : 500 ms



Código:
http://ul.to/wf5gh0dj

http://www.filesonic.com/file/2463450491

nueve93

Mensajes : 98
Fecha de inscripción : 07/10/2011

Ver perfil de usuario

Volver arriba Ir abajo

Ver el tema anterior Ver el tema siguiente Volver arriba

- Temas similares

 
Permisos de este foro:
No puedes responder a temas en este foro.