Buscar
 
 

Resultados por:
 


Rechercher Búsqueda avanzada

Últimos temas
» Novedades eBooks [23 11 2017][Multiformatos]
Ayer a las 5:32 am por nueve93

» Whore wife gets bbc creampie
Ayer a las 5:09 am por nueve93

» Incredible latina wife creampied by husbands best friend
Ayer a las 5:01 am por nueve93

» HORNY MILF CRAVE MASSIVE CREAPIE
Ayer a las 4:54 am por nueve93

» THE SEXIEST MILF BLOWJOB EVER
Ayer a las 4:45 am por nueve93

» JUST CUM INSIDE HER PUSSY - WHO IS THAT GIRL
Ayer a las 4:37 am por nueve93

» Pink satin pantyjob session
Ayer a las 4:29 am por nueve93

» Jerk off inside my blue marine pantyhose
Ayer a las 4:21 am por nueve93

» Park handjob
Ayer a las 4:12 am por nueve93

Noviembre 2017
LunMarMiérJueVieSábDom
  12345
6789101112
13141516171819
20212223242526
27282930   

Calendario Calendario

Compañeros

Crear foro



Compañeros

Crear foro




The Wolverine [2013] 3D H-SBS 1080p [Ing-Lat]

Ver el tema anterior Ver el tema siguiente Ir abajo

The Wolverine [2013] 3D H-SBS 1080p [Ing-Lat]

Mensaje  pomposos el Lun Sep 04, 2017 3:26 pm




TITULO ORIGINAL: The Wolverine (X-Men Origins: Wolverine 2)
ANO: 2013
DURACION: 126 min.
PAIS: USA
DIRECTOR: James Mangold
GUION: Scott Frank, Mark Bomback (Comic: Frank Miller, Chris Claremont)
REPARTO: Hugh Jackman, Tao Okamoto, Rila Fukushima, Hiroyuki Sanada, Famke Janssen, Brian Tee, Svetlana Khodchenkova, Hal Yamanouchi, Will Yun Lee, Ken Yamamura, Shinji Ikefuji, Conrad Coleby, Taris Tyler, Kimi, Louis Toshio Okada, Hiroshi Kasuga
PRODUCTORA: Twentieth Century Fox Film Corporation / Marvel Entertainment / Dune Entertainment
GENERO: Fantastico. Ciencia ficcion. Accion | Superheroes. Comic. Marvel Comics. Spin-off. Secuela. Samurais. Ninjas
Sinopsis: Un Logan amnesico busca respuestas sobre su pasado en el mundo del crimen organizado de Japon. Vulnerable por primera vez y desafiando sus limites fisicos y emocionales, no solo se enfrentara al letal acero samurai, tambien se vera en una lucha interna contra su propia inmortalidad que le volvera mas fuerte.
Código:
http://www.imdb.com/title/tt1430132/
Trailer
https://youtu.be/EMA7_bZfPfA

Código:

General
Format version                          : Version 2
File size                                : 12.4 GiB
Duration                                : 2h 6mn
Overall bit rate                        : 14.1 Mbps
Encoded date                            : UTC 2013-11-08 23:59:35
Writing application                      : mkvmerge v5.7.0 (The Whirlwind) built on Jul  8 2012 20:08:51
Writing library                          : libebml v1.2.3 + libmatroska v1.3.0
Video
ID                                      : 1
Format                                  : AVC
Format/Info                              : Advanced Video Codec
Format profile                          : High@L4.1
Format settings, CABAC                  : Yes
Format settings, ReFrames                : 2 frames
Codec ID                                : V_MPEG4/ISO/AVC
Duration                                : 2h 6mn
Bit rate                                : 11.3 Mbps
Width                                    : 1 920 pixels
Height                                  : 1 080 pixels
Display aspect ratio                    : 16:9
Frame rate mode                          : Constant
Frame rate                              : 23.976 fps
Color space                              : YUV
Chroma subsampling                      : 4:2:0
Bit depth                                : 8 bits
Scan type                                : Progressive
Bits/(Pixel*Frame)                      : 0.227
Stream size                              : 9.96 GiB (80%)
Writing library                          : x264 core
Language                                : English
Default                                  : Yes
Forced                                  : No
Color primaries                          : BT.709
Transfer characteristics                : BT.709
Matrix coefficients                      : BT.709
Audio #1
ID                                      : 2
Format                                  : AC-3
Format/Info                              : Audio Coding 3
Mode extension                          : CM (complete main)
Format settings, Endianness              : Big
Codec ID                                : A_AC3
Duration                                : 2h 6mn
Bit rate mode                            : Constant
Bit rate                                : 384 Kbps
Channel(s)                              : 6 channels
Channel positions                        : Front: L C R, Side: L R, LFE
Sampling rate                            : 48.0 KHz
Bit depth                                : 16 bits
Compression mode                        : Lossy
Stream size                              : 346 MiB (3%)
Title                                    : AC3 5.1
Language                                : Spanish
Default                                  : Yes
Forced                                  : No
Audio #2
ID                                      : 3
Format                                  : AC-3
Format/Info                              : Audio Coding 3
Mode extension                          : CM (complete main)
Format settings, Endianness              : Big
Codec ID                                : A_AC3
Duration                                : 2h 6mn
Bit rate mode                            : Constant
Bit rate                                : 640 Kbps
Channel(s)                              : 6 channels
Channel positions                        : Front: L C R, Side: L R, LFE
Sampling rate                            : 48.0 KHz
Bit depth                                : 16 bits
Compression mode                        : Lossy
Stream size                              : 577 MiB (5%)
Title                                    : AC3 5.1
Language                                : English
Default                                  : No
Forced                                  : No
Audio #3
ID                                      : 4
Format                                  : DTS
Format/Info                              : Digital Theater Systems
Format profile                          : ES
Mode                                    : 16
Format settings, Endianness              : Big
Codec ID                                : A_DTS
Duration                                : 2h 6mn
Bit rate mode                            : Constant
Bit rate                                : 1 509 Kbps
Channel(s)                              : 6 channels
Channel positions                        : Front: L C R, Side: L R, LFE
Sampling rate                            : 48.0 KHz
Bit depth                                : 24 bits
Compression mode                        : Lossy
Stream size                              : 1.33 GiB (11%)
Title                                    : DTS 5.1
Language                                : English
Default                                  : No
Forced                                  : No
Text #1
ID                                      : 5
Format                                  : VobSub
Muxing mode                              : zlib
Codec ID                                : S_VOBSUB
Codec ID/Info                            : The same subtitle format used on DVDs
Language                                : Spanish
Default                                  : Yes
Forced                                  : No
Text #2
ID                                      : 6
Format                                  : VobSub
Muxing mode                              : zlib
Codec ID                                : S_VOBSUB
Codec ID/Info                            : The same subtitle format used on DVDs
Language                                : Spanish
Default                                  : No
Forced                                  : No







http://lupaste.com/?v=23604

pomposos

Mensajes : 2212
Fecha de inscripción : 24/10/2011

Ver perfil de usuario

Volver arriba Ir abajo

Ver el tema anterior Ver el tema siguiente Volver arriba

- Temas similares

 
Permisos de este foro:
No puedes responder a temas en este foro.