Buscar
 
 

Resultados por:
 


Rechercher Búsqueda avanzada

Últimos temas
» Novedades eBooks [23 11 2017][Multiformatos]
Ayer a las 5:32 am por nueve93

» Whore wife gets bbc creampie
Ayer a las 5:09 am por nueve93

» Incredible latina wife creampied by husbands best friend
Ayer a las 5:01 am por nueve93

» HORNY MILF CRAVE MASSIVE CREAPIE
Ayer a las 4:54 am por nueve93

» THE SEXIEST MILF BLOWJOB EVER
Ayer a las 4:45 am por nueve93

» JUST CUM INSIDE HER PUSSY - WHO IS THAT GIRL
Ayer a las 4:37 am por nueve93

» Pink satin pantyjob session
Ayer a las 4:29 am por nueve93

» Jerk off inside my blue marine pantyhose
Ayer a las 4:21 am por nueve93

» Park handjob
Ayer a las 4:12 am por nueve93

Noviembre 2017
LunMarMiérJueVieSábDom
  12345
6789101112
13141516171819
20212223242526
27282930   

Calendario Calendario

Compañeros

Crear foro



Compañeros

Crear foro




Star Trek Into Darkness [2013] 3D H-SBS 1080p [Ing-Lat]

Ver el tema anterior Ver el tema siguiente Ir abajo

Star Trek Into Darkness [2013] 3D H-SBS 1080p [Ing-Lat]

Mensaje  pomposos el Mar Ago 29, 2017 9:17 am




TITULO ORIGINAL: Star Trek Into Darkness (Star Trek 2)
ANO: 2013
DURACION: 132 min.
PAIS: USA
DIRECTOR: J.J. Abrams
GUION: Alex Kurtzman, Damon Lindelof, Roberto Orci (Serie original: Gene Roddenberry)
REPARTO: Chris Pine, Zachary Quinto, Zoe Saldana, Benedict Cumberbatch, Karl Urban, Simon Pegg, John Cho, Anton Yelchin, Alice Eve, Bruce Greenwood, Peter Weller, Noel Clarke, Leonard Nimoy
PRODUCTORA: Bad Robot / Skydance / Paramount Pictures
GENERO: Ciencia ficcion. Aventuras. Accion | Aventura espacial. Secuela. Star Trek. 3-D
Sinopsis: Cuando a la tripulacion de la nave Enterprise le ordenan que regrese a casa, en la Tierra se enfrentan a una terrorifica fuerza que, aparentemente desde dentro, ha perpetrado un ataque a la cupula de la Federacion y todo lo que esta representa, sumiendo a la flota en una profunda crisis. Para intentar solucionar el problema, y con un asunto personal que resolver, el capitan Kirk encabeza una incursion a un planeta en guerra para capturar a un hombre que es un arma de destruccion masiva. A medida que nuestros heroes se van sumergiendo en una epica partida de ajedrez a vida o muerte, la lealtad se vera puesta a prueba, las amistades se romperan, y habra que hacer ciertos sacrificios por la unica familia que le queda a Kirk: su tripulacion.
Código:
http://www.imdb.com/title/tt1408101/
Trailer
https://youtu.be/QAEkuVgt6Aw

Código:

General
Format                                  : Matroska
Format version                          : Version 2
File size                                : 13.5 GiB
Duration                                : 2h 12mn
Overall bit rate                        : 14.6 Mbps
Encoded date                            : UTC 2013-08-27 02:00:44
Writing application                      : mkvmerge v5.7.0 (The Whirlwind) built on Jul  8 2012 20:08:51
Writing library                          : libebml v1.2.3 + libmatroska v1.3.0
Video
ID                                      : 1
Format                                  : AVC
Format/Info                              : Advanced Video Codec
Format profile                          : High@L4.1
Format settings, CABAC                  : Yes
Format settings, ReFrames                : 2 frames
Format settings, GOP                    : M=3, N=24
Codec ID                                : V_MPEG4/ISO/AVC
Duration                                : 2h 12mn
Bit rate                                : 11.5 Mbps
Width                                    : 1 920 pixels
Height                                  : 1 080 pixels
Display aspect ratio                    : 16:9
Frame rate mode                          : Constant
Frame rate                              : 23.976 fps
Color space                              : YUV
Chroma subsampling                      : 4:2:0
Bit depth                                : 8 bits
Scan type                                : Progressive
Bits/(Pixel*Frame)                      : 0.231
Stream size                              : 10.6 GiB (79%)
Writing library                          : x264 core
Language                                : English
Default                                  : Yes
Forced                                  : No
Color primaries                          : BT.709
Transfer characteristics                : BT.709
Matrix coefficients                      : BT.709
Audio #1
ID                                      : 2
Format                                  : AC-3
Format/Info                              : Audio Coding 3
Mode extension                          : CM (complete main)
Format settings, Endianness              : Big
Codec ID                                : A_AC3
Duration                                : 2h 12mn
Bit rate mode                            : Constant
Bit rate                                : 640 Kbps
Channel(s)                              : 6 channels
Channel positions                        : Front: L C R, Side: L R, LFE
Sampling rate                            : 48.0 KHz
Bit depth                                : 16 bits
Compression mode                        : Lossy
Stream size                              : 605 MiB (4%)
Title                                    : AC3 5.1
Language                                : Spanish
Default                                  : Yes
Forced                                  : No
Audio #2
ID                                      : 3
Format                                  : AC-3
Format/Info                              : Audio Coding 3
Mode extension                          : CM (complete main)
Format settings, Endianness              : Big
Codec ID                                : A_AC3
Duration                                : 2h 12mn
Bit rate mode                            : Constant
Bit rate                                : 640 Kbps
Channel(s)                              : 6 channels
Channel positions                        : Front: L C R, Side: L R, LFE
Sampling rate                            : 48.0 KHz
Bit depth                                : 16 bits
Compression mode                        : Lossy
Stream size                              : 605 MiB (4%)
Title                                    : AC3 5.1
Language                                : English
Default                                  : No
Forced                                  : No
Audio #3
ID                                      : 4
Format                                  : DTS
Format/Info                              : Digital Theater Systems
Mode                                    : 16
Format settings, Endianness              : Big
Codec ID                                : A_DTS
Duration                                : 2h 12mn
Bit rate mode                            : Constant
Bit rate                                : 1 510 Kbps
Channel(s)                              : 6 channels
Channel positions                        : Front: L C R, Side: L R, LFE
Sampling rate                            : 48.0 KHz
Bit depth                                : 24 bits
Compression mode                        : Lossy
Stream size                              : 1.39 GiB (10%)
Title                                    : DTS 5.1
Language                                : English
Default                                  : No
Forced                                  : No
Text #1
ID                                      : 5
Format                                  : VobSub
Muxing mode                              : zlib
Codec ID                                : S_VOBSUB
Codec ID/Info                            : The same subtitle format used on DVDs
Title                                    : Forz 3D
Language                                : Spanish
Default                                  : Yes
Forced                                  : No
Text #2
ID                                      : 6
Format                                  : VobSub
Muxing mode                              : zlib
Codec ID                                : S_VOBSUB
Codec ID/Info                            : The same subtitle format used on DVDs
Title                                    : Complet 3D
Language                                : Spanish
Default                                  : No
Forced                                  : No







Katfile, Uploaded, Rapidgator

**Todos los Enlaces Estan en Lupaste:
http://lupaste.com/?v=23343

pomposos

Mensajes : 2212
Fecha de inscripción : 24/10/2011

Ver perfil de usuario

Volver arriba Ir abajo

Ver el tema anterior Ver el tema siguiente Volver arriba

- Temas similares

 
Permisos de este foro:
No puedes responder a temas en este foro.