Buscar
 
 

Resultados por:
 


Rechercher Búsqueda avanzada

Palabras claves

excel  

Últimos temas
Septiembre 2017
LunMarMiérJueVieSábDom
    123
45678910
11121314151617
18192021222324
252627282930 

Calendario Calendario

Compañeros

Crear foro



Compañeros

Crear foro




R.I.P.D. [2013] 3D H-SBS 1080p [Ing-Lat]

Ver el tema anterior Ver el tema siguiente Ir abajo

R.I.P.D. [2013] 3D H-SBS 1080p [Ing-Lat]

Mensaje  pomposos el Lun Ago 28, 2017 6:28 pm




TITULO ORIGINAL: R.I.P.D. (RIPD. Rest In Peace Department)
ANO: 2013
DURACION: 118 min.
PAIS: USA
DIRECTOR: Robert Schwentke
GUION: Phil Hay, Matt Manfredi (Comic: Peter M. Lenkov)
REPARTO: Jeff Bridges, Ryan Reynolds, Kevin Bacon, Mary-Louise Parker, James Hong, Robert Knepper, Stephanie Szostak, Devin Ratray, Mike OMalley, Marisa Miller
PRODUCTORA: Universal Pictures / Dark Horse Entertainment / Original Film / RSIG Security
GENERO: Fantastico. Comedia | Policiaco. Sobrenatural. Comic
Sinopsis: Nick Walker y Roy Pulsipher son dos policias especiales. Nick acaba de morir, pero es llamado para trabajar con Roy, un agente que murio hace cientos de anos. Ambos forman parte del �Rest In Peace Department�, que se encarga de perseguir a los demonios que habitan en el mundo de los vivos y de mandarlos al infierno. A Nick le cuesta hacerse a la idea de su condicion de muerto, y no acepta estar alejado de su esposa, a la que envia reiteradas senales para que perciba su presencia. Al menos, gracias a su empleo post mortem, el joven agente intentara averiguar la identidad de su asesino.
Código:
http://www.imdb.com/title/tt0790736/
Trailer
https://youtu.be/SWyQOgSnyJY

Código:

General
Format                                  : Matroska
Format version                          : Version 3 / Version 2
File size                                : 9.71 GiB
Duration                                : 1h 35mn
Overall bit rate                        : 14.5 Mbps
Encoded date                            : UTC 2013-10-19 15:00:36
Writing application                      : mkvmerge v5.7.0 (The Whirlwind) built on Jul  8 2012 20:08:51
Writing library                          : libebml v1.2.3 + libmatroska v1.3.0
Video
ID                                      : 1
Format                                  : AVC
Format/Info                              : Advanced Video Codec
Format profile                          : High@L4.1
MultiView_Count                          : 2
MultiView_Layout                        : Side by Side (left eye first)
Format settings, CABAC                  : Yes
Format settings, ReFrames                : 4 frames
Codec ID                                : V_MPEG4/ISO/AVC
Duration                                : 1h 35mn
Bit rate                                : 10.6 Mbps
Width                                    : 1 920 pixels
Height                                  : 1 080 pixels
Display aspect ratio                    : 16:9
Frame rate mode                          : Constant
Frame rate                              : 23.976 fps
Color space                              : YUV
Chroma subsampling                      : 4:2:0
Bit depth                                : 8 bits
Scan type                                : Progressive
Bits/(Pixel*Frame)                      : 0.214
Stream size                              : 7.13 GiB (73%)
Language                                : English
Default                                  : Yes
Forced                                  : No
Audio #1
ID                                      : 2
Format                                  : DTS
Format/Info                              : Digital Theater Systems
Mode                                    : 16
Format settings, Endianness              : Big
Codec ID                                : A_DTS
Duration                                : 1h 35mn
Bit rate mode                            : Constant
Bit rate                                : 768 Kbps
Channel(s)                              : 6 channels
Channel positions                        : Front: L C R, Side: L R, LFE
Sampling rate                            : 48.0 KHz
Bit depth                                : 24 bits
Compression mode                        : Lossy
Delay relative to video                  : 3ms
Stream size                              : 527 MiB (5%)
Title                                    : DTS 5.1
Language                                : Spanish
Default                                  : Yes
Forced                                  : No
Audio #2
ID                                      : 3
Format                                  : AC-3
Format/Info                              : Audio Coding 3
Mode extension                          : CM (complete main)
Format settings, Endianness              : Big
Codec ID                                : A_AC3
Duration                                : 1h 35mn
Bit rate mode                            : Constant
Bit rate                                : 640 Kbps
Channel(s)                              : 6 channels
Channel positions                        : Front: L C R, Side: L R, LFE
Sampling rate                            : 48.0 KHz
Bit depth                                : 16 bits
Compression mode                        : Lossy
Stream size                              : 439 MiB (4%)
Title                                    : AC3 5.1
Language                                : Spanish
Default                                  : No
Forced                                  : No
Audio #3
ID                                      : 4
Format                                  : DTS
Format/Info                              : Digital Theater Systems
Mode                                    : 16
Format settings, Endianness              : Big
Codec ID                                : A_DTS
Duration                                : 1h 35mn
Bit rate mode                            : Constant
Bit rate                                : 1 509 Kbps
Channel(s)                              : 6 channels
Channel positions                        : Front: L C R, Side: L R, LFE
Sampling rate                            : 48.0 KHz
Bit depth                                : 24 bits
Compression mode                        : Lossy
Stream size                              : 1.01 GiB (10%)
Title                                    : DTS 5.1
Language                                : English
Default                                  : No
Forced                                  : No
Audio #4
ID                                      : 5
Format                                  : AC-3
Format/Info                              : Audio Coding 3
Mode extension                          : CM (complete main)
Format settings, Endianness              : Big
Codec ID                                : A_AC3
Duration                                : 1h 35mn
Bit rate mode                            : Constant
Bit rate                                : 640 Kbps
Channel(s)                              : 6 channels
Channel positions                        : Front: L C R, Side: L R, LFE
Sampling rate                            : 48.0 KHz
Bit depth                                : 16 bits
Compression mode                        : Lossy
Stream size                              : 439 MiB (4%)
Title                                    : AC3 5.1
Language                                : English
Default                                  : No
Forced                                  : No
Text
ID                                      : 6
Format                                  : ASS
Codec ID                                : S_TEXT/ASS
Codec ID/Info                            : Advanced Sub Station Alpha
Compression mode                        : Lossless
Language                                : Spanish 3D
Default                                  : No
Forced                                  : No







Katfile, Uploaded, Rapidgator

**Todos los Enlaces Estan en Lupaste:

http://lupaste.com/?v=23262

pomposos

Mensajes : 1586
Fecha de inscripción : 24/10/2011

Ver perfil de usuario

Volver arriba Ir abajo

Ver el tema anterior Ver el tema siguiente Volver arriba

- Temas similares

 
Permisos de este foro:
No puedes responder a temas en este foro.