Buscar
 
 

Resultados por:
 


Rechercher Búsqueda avanzada

Palabras claves

excel  

Septiembre 2017
LunMarMiérJueVieSábDom
    123
45678910
11121314151617
18192021222324
252627282930 

Calendario Calendario

Compañeros

Crear foro



Compañeros

Crear foro




Man of Steel [2013] 3D H-SBS 1080p [Ing-Lat]

Ver el tema anterior Ver el tema siguiente Ir abajo

Man of Steel [2013] 3D H-SBS 1080p [Ing-Lat]

Mensaje  pomposos el Lun Ago 28, 2017 2:14 pm




TITULO ORIGINAL: Man of Steel (Superman)
ANO: 2013
DURACION: 118 min.
PAIS: USA
DIRECTOR: Zack Snyder
GUION:David S. Goyer (Historia: David S. Goyer, Christopher Nolan)
REPARTO: Henry Cavill, Amy Adams, Russell Crowe, Michael Shannon, Kevin Costner, Laurence Fishburne, Diane Lane, Ayelet Zurer, Christopher Meloni, Richard Schiff, Antje Traue, Jadin Gould, Tahmoh Penikett, Michael Kelly, Dylan Sprayberry, Harry Lennix
PRODUCTORA: Coproduccion USA-Canada-Reino Unido; Warner Bros. Pictures / Legendary Pictures / Atlas Entertainment
GENERO: Ciencia ficcion. Fantastico. Accion. Drama | Superheroes. Comic. DC Comics. 3-D
Sinopsis: Desde Krypton, un lejano planeta muy avanzado tecnologicamente, un bebe es enviado en una capsula a traves del espacio a la Tierra para que viva entre los humanos. Educado en una granja en Kansas en los valores de sus padres adoptivos, Martha (Diane Lane) y Jonathan Kent (Kevin Costner), el joven Clark Kent (Henry Cavill) comienza desde nino a desarrollar poderes sobrehumanos, y al llegar a la edad adulta llega a la conclusion de que esos poderes le exigen grandes responsabilidades, para proteger no solo a los que quiere, sino tambien para representar una esperanza para el mundo.
Código:
http://www.imdb.com/title/tt0770828/
Trailer
https://youtu.be/l8UrKWnwfWk

Código:

General
Format: Matroska
Format version: Version 3 / Version 2
File size: 16.6 GiB
Duration: 2h 23mn
Overall bit rate 16.6 Mbps
Encoded date UTC 2013-11-09 20:21:31
Writing application: mkvmerge v5.7.0 (The Whirlwind) built on Jul  8 2012 20:08:51
Writing library: libebml v1.2.3 + libmatroska v1.3.0
Video
ID: 1
Format: AVC
Format/Info: Advanced Video Codec
Format profile: High@L4.1
MultiView_Count 2
MultiView_Layout: Side by Side (left eye first)
Format settings, CABAC: Yes
Format settings, ReFrames: 4 frames
Codec ID: V_MPEG4/ISO/AVC
Duration: 2h 23mn
Bit rate: 13.5 Mbps
Width: 1 920 pixels
Height: 1 080 pixels
Display aspect ratio: 16:9
Frame rate mode Constant
Frame rate: 23.976 fps
Color space: YUV
Chroma subsampling: 4:2:0
Bit depth: 8 bits
Scan type: Progressive
Bits/(Pixel*Frame): 0.271
Stream size: 13.5 GiB (81%)
Language: English
Default: Yes
Forced: No
Audio #1
ID: 2
Format: AC-3
Format/Info: Audio Coding 3
Mode extension                          : CM (complete main)
Format settings, Endianness              : Big
Codec ID                                : A_AC3
Duration                                : 2h 23mn
Bit rate mode                            : Constant
Bit rate                                : 640 Kbps
Channel(s)                              : 6 channels
Channel positions                        : Front: L C R, Side: L R, LFE
Sampling rate                            : 48.0 KHz
Bit depth                                : 16 bits
Compression mode                        : Lossy
Stream size                              : 655 MiB (4%)
Title                                    : AC3 5.1
Language                                : Spanish
Default                                  : Yes
Forced                                  : No
Audio #2
ID                                      : 3
Format                                  : AC-3
Format/Info                              : Audio Coding 3
Mode extension                          : CM (complete main)
Format settings, Endianness              : Big
Codec ID                                : A_AC3
Duration                                : 2h 23mn
Bit rate mode                            : Constant
Bit rate                                : 640 Kbps
Channel(s)                              : 6 channels
Channel positions                        : Front: L C R, Side: L R, LFE
Sampling rate                            : 48.0 KHz
Bit depth                                : 16 bits
Compression mode                        : Lossy
Stream size                              : 655 MiB (4%)
Title                                    : AC3 5.1
Language                                : English
Default                                  : No
Forced                                  : No
Audio #3
ID                                      : 4
Format                                  : DTS
Format/Info                              : Digital Theater Systems
Mode                                    : 16
Format settings, Endianness              : Big
Codec ID                                : A_DTS
Duration                                : 2h 23mn
Bit rate mode                            : Constant
Bit rate                                : 1 509 Kbps
Channel(s)                              : 6 channels
Channel positions                        : Front: L C R, Side: L R, LFE
Sampling rate                            : 48.0 KHz
Bit depth                                : 24 bits
Compression mode                        : Lossy
Stream size                              : 1.51 GiB (9%)
Title                                    : DTS 5.1
Language                                : English
Default                                  : No
Forced                                  : No
Text #1
ID                                      : 5
Format                                  : VobSub
Muxing mode                              : zlib
Codec ID                                : S_VOBSUB
Codec ID/Info                            : The same subtitle format used on DVDs
Title                                    : Forz
Language                                : Spanish
Default                                  : Yes
Forced                                  : No
Text #2
ID                                      : 6
Format                                  : VobSub
Muxing mode                              : zlib
Codec ID                                : S_VOBSUB
Codec ID/Info                            : The same subtitle format used on DVDs
Title                                    : Complet
Language                                : Spanish
Default                                  : No
Forced                                  : No







Katfile, Uploaded, Rapidgator

**Todos los Enlaces Estan en Lupaste:

http://lupaste.com/?v=23233

pomposos

Mensajes : 1564
Fecha de inscripción : 24/10/2011

Ver perfil de usuario

Volver arriba Ir abajo

Ver el tema anterior Ver el tema siguiente Volver arriba

- Temas similares

 
Permisos de este foro:
No puedes responder a temas en este foro.