Buscar
 
 

Resultados por:
 


Rechercher Búsqueda avanzada

Febrero 2017
LunMarMiérJueVieSábDom
  12345
6789101112
13141516171819
20212223242526
2728     

Calendario Calendario

Compañeros

Crear foro



Compañeros

Crear foro




Tormenta Magnetica (DVDRIP)(Ciencia Ficcion)(Español)(2010)

Ver el tema anterior Ver el tema siguiente Ir abajo

Tormenta Magnetica (DVDRIP)(Ciencia Ficcion)(Español)(2010)

Mensaje  nueve93 el Sáb Oct 08, 2011 8:39 am





Ficha tecnica

TÍTULO ORIGINAL Polar Storm (TV)
AÑO: 2010
DURACIÓN min.
PAÍS Estados Unidos
DIRECTOR Paul Ziller
GUIÓN Jason Bourque, Paul Ziller
MÚSICA
FOTOGRAFÍA Mahlon Todd Williams
REPARTO Jack Coleman, Holly Dignard, Tyler Johnston, Terry David Mulligan, Roger R. Cross
PRODUCTORA NBC Universal Television
GÉNERO Ciencia ficcion. Accion | Catastrofes

Sinopsis

Un cometa impacta la Tierra causando diversas catastrofes naturales. Cuando el Dr. James Mayfield -el unico que predijo que habia peligro de impacto contra el planeta- y su equipo de cientificos descubren que la corteza de la Tierra se desprende, emprenden una carrera contrarreloj para salvar al planeta de su total destruccion.

Capturas



Codigo pelicula

Spoiler:


General

Complete name : files/Tormenta_Magnetica_DVDRip_nueve93.avi
Format : AVI
Format/Info : Audio Video Interleave
File size : 722 MiB
Duration : 1h 27mn
Overall bit rate : 1 151 Kbps
Writing application : VirtualDubMod 1.5.10.2 (build 2540/release)
Writing library : VirtualDub build 32839/release

Video

ID : 0
Format : MPEG-4 Visual
Format profile : Advanced Simple@L5
Format settings, BVOP : Yes
Format settings, QPel : No
Format settings, GMC : No warppoints
Format settings, Matrix : Default (H.263)
Muxing mode : Packed bitstream
Codec ID : XVID
Codec ID/Hint : XviD
Duration : 1h 27mn
Bit rate : 949 Kbps
Width : 640 pixels
Height : 352 pixels
Display aspect ratio : 16:9
Frame rate : 25.000 fps
Color space : YUV
Chroma subsampling : 4:2:0
Bit depth : 8 bits
Scan type : Progressive
Bits/(Pixel*Frame) : 0.168
Stream size : 596 MiB (82%)
Writing library : XviD 64

Audio

ID : 1
Format : AC-3
Format/Info : Audio Coding 3
Mode extension : CM (complete main)
Codec ID : 2000
Duration : 1h 27mn
Bit rate mode : Constant
Bit rate : 192 Kbps
Channel(s) : 2 channels
Channel positions : Front: L R
Sampling rate : 48.0 KHz
Bit depth : 16 bits
Stream size : 121 MiB (17%)
Alignment : Aligned on interleaves
Interleave, duration : 40 ms (1.00 video frame)
Interleave, preload duration : 512 ms



Código:
http://www.wupload.com/file/336314428

http://www.uploadstation.com/file/5Zc6hqc

http://ul.to/aawmk53c

nueve93

Mensajes : 98
Fecha de inscripción : 07/10/2011

Ver perfil de usuario

Volver arriba Ir abajo

Ver el tema anterior Ver el tema siguiente Volver arriba

- Temas similares

 
Permisos de este foro:
No puedes responder a temas en este foro.