Buscar
 
 

Resultados por:
 


Rechercher Búsqueda avanzada

Palabras claves

excel  

Últimos temas
Septiembre 2017
LunMarMiérJueVieSábDom
    123
45678910
11121314151617
18192021222324
252627282930 

Calendario Calendario

Compañeros

Crear foro



Compañeros

Crear foro




47 Ronin (2013) 3D H-SBS 1080p (Ing-Lat)

Ver el tema anterior Ver el tema siguiente Ir abajo

47 Ronin (2013) 3D H-SBS 1080p (Ing-Lat)

Mensaje  pomposos el Miér Jun 28, 2017 9:30 am




TITULO ORIGINAL: 47 Ronin
ANO 2013
DURACION: 119 min.
PAIS: EE.UU.
DIRECTOR: Carl Erik Rinsch
GUY: Hossein Amini, Chris Morgan
INFORME: Keanu Reeves, Hiroyuki Sanada, Kou Shibasaki, Cary-Hiroyuki Tagawa, Rinko Kikuchi, Tadanobu Asano, Togo Igawa
PRODUCTORA: Universal Pictures / H2F Entertainment / Stuber Productions
GENERO: Accion. Drama. Fantastico | Samurais feudales de Japon. Siglo XVIII. Venganza. 3-D
Código:
 http://www.imdb.com/title/tt1335975/
Sinopsis: Basado en una leyenda japonesa. Siglo XVIII. Kai (Keanu Reeves) es un paria que se une a Oishi (Hiroyuki Sanada), el jefe de los 47 Ronin. Su objetivo es vengarse del traidor que mato' a su amo y condenarlos al exilio. Para recuperar el honor perdido, los guerreros se embarcan en una aventura que los obligo' a superar duras pruebas.
Trailer
https://www.youtube.com/watch?v=-tr3WpcAntI&feature=youtu.be

Código:

General
Format Matroska
Format version Version 2
File size 13.9 GiB
Duration 1h 58mn
Overall bit rate 16.7 Mbps
Encoded date UTC 2014-03-23 13:46:51
Writing application mkvmerge v5.7.0 (The Whirlwind) built on Jul  8 2012 20:08:51
Writing library libebml v1.2.3 + libmatroska v1.3.0
Video
ID 1
Format AVC
Format/Info Advanced Video Codec
Format profile High@L4.1
Format settings, CABAC Yes
Format settings, ReFrames 4 frames
Muxing mode Header stripping
Codec ID V_MPEG4/ISO/AVC
Duration 1h 58mn
Bit rate 13.2 Mbps
Width 1 920 pixels
Height 1 080 pixels
Display aspect ratio 16:9
Frame rate mode Constant
Frame rate 23.976 fps
Color space YUV
Chroma subsampling  4:2:0
Bit depth 8 bits
Scan type Progressive
Bits/(Pixel*Frame) 0.266
Stream size 10.7 GiB (77%)
Writing library x264 core 140 r2377 1ca7bb9
Language  English
Default                                  : Yes
Forced                                  : No
Audio #1
ID                                      : 2
Format                                  : DTS
Format/Info                              : Digital Theater Systems
Mode                                    : 16
Format settings, Endianness              : Big
Muxing mode                              : Header stripping
Codec ID                                : A_DTS
Duration                                : 1h 58mn
Bit rate mode                            : Constant
Bit rate                                : 768 Kbps
Channel(s)                              : 6 channels
Channel positions                        : Front: L C R, Side: L R, LFE
Sampling rate                            : 48.0 KHz
Bit depth                                : 24 bits
Compression mode                        : Lossy
Stream size                              : 652 MiB (5%)
Title                                    : DTS 5.1
Language                                : Spanish
Default                                  : Yes
Forced                                  : No
Audio #2
ID                                      : 3
Format                                  : AC-3
Format/Info                              : Audio Coding 3
Mode extension                          : CM (complete main)
Format settings, Endianness              : Big
Muxing mode                              : Header stripping
Codec ID                                : A_AC3
Duration                                : 1h 58mn
Bit rate mode                            : Constant
Bit rate                                : 640 Kbps
Channel(s)                              : 6 channels
Channel positions                        : Front: L C R, Side: L R, LFE
Sampling rate                            : 48.0 KHz
Bit depth                                : 16 bits
Compression mode                        : Lossy
Stream size                              : 544 MiB (4%)
Title                                    : AC3 5.1
Language                                : Spanish
Default                                  : No
Forced                                  : No
Audio #3
ID                                      : 4
Format                                  : AC-3
Format/Info                              : Audio Coding 3
Mode extension                          : CM (complete main)
Format settings, Endianness              : Big
Muxing mode                              : Header stripping
Codec ID                                : A_AC3
Duration                                : 1h 58mn
Bit rate mode                            : Constant
Bit rate                                : 640 Kbps
Channel(s)                              : 6 channels
Channel positions                        : Front: L C R, Side: L R, LFE
Sampling rate                            : 48.0 KHz
Bit depth                                : 16 bits
Compression mode                        : Lossy
Stream size                              : 544 MiB (4%)
Title                                    : AC3 5.1
Language                                : English
Default                                  : No
Forced                                  : No
Audio #4
ID                                      : 5
Format                                  : DTS
Format/Info                              : Digital Theater Systems
Mode                                    : 16
Format settings, Endianness              : Big
Muxing mode                              : Header stripping
Codec ID                                : A_DTS
Duration                                : 1h 58mn
Bit rate mode                            : Constant
Bit rate                                : 1 509 Kbps
Channel(s)                              : 6 channels
Channel positions                        : Front: L C R, Side: L R, LFE
Sampling rate                            : 48.0 KHz
Bit depth                                : 24 bits
Compression mode                        : Lossy
Stream size                              : 1.25 GiB (9%)
Title                                    : DTS 5.1
Language                                : English
Default                                  : No
Forced                                  : No
Text #1
ID                                      : 6
Format                                  : VobSub
Muxing mode                              : zlib
Codec ID                                : S_VOBSUB
Codec ID/Info                            : The same subtitle format used on DVDs
Title                                    : Forzados
Language                                : Spanish
Default                                  : Yes
Forced                                  : No
Text #2
ID                                      : 7
Format                                  : VobSub
Muxing mode                              : zlib
Codec ID                                : S_VOBSUB
Codec ID/Info                            : The same subtitle format used on DVDs
Title                                    : Completos
Language                                : Spanish
Default                                  : No
Forced                                  : No





Código:

https://uploadgig.com/file/download/712abAbd16d7537b/4a7ni33ds.part1.rar
https://uploadgig.com/file/download/98C64b2fD4b5ed09/4a7ni33ds.part2.rar
https://uploadgig.com/file/download/7Eb21d3443c56c1c/4a7ni33ds.part3.rar
https://uploadgig.com/file/download/ca9ca69DeEe6d91c/4a7ni33ds.part4.rar
https://uploadgig.com/file/download/a0Ad70c7e34f15eA/4a7ni33ds.part5.rar
https://uploadgig.com/file/download/94bbFe3a104d1261/4a7ni33ds.part6.rar
https://uploadgig.com/file/download/e1b0019cB312b685/4a7ni33ds.part7.rar
https://uploadgig.com/file/download/d6C565a97d6709E9/4a7ni33ds.part8.rar
Código:

http://rapidgator.net/file/04be5443fa0315b9e9e9f9404ecc35b5/4a7ni33ds.part1.rar.html
http://rapidgator.net/file/6a7f9e786fddf7b6d07a7e3db1d15c09/4a7ni33ds.part2.rar.html
http://rapidgator.net/file/39559c0b8111102f261a1c6110b3f4a0/4a7ni33ds.part3.rar.html
http://rapidgator.net/file/905a4cb8838e62f9a1b053cf2bc1649e/4a7ni33ds.part4.rar.html
http://rapidgator.net/file/0607985dcda6ce217e7bf558f0a616ca/4a7ni33ds.part5.rar.html
http://rapidgator.net/file/46875f35ab8df116a0b667a06e020af7/4a7ni33ds.part6.rar.html
http://rapidgator.net/file/6a35430d19eace7595bc927dd191091d/4a7ni33ds.part7.rar.html
http://rapidgator.net/file/7815b8adb8a102b562d80036cbc94779/4a7ni33ds.part8.rar.html
Código:

http://turbobit.net/hd17q58ea3dh/4a7ni33ds.part1.rar.html
http://turbobit.net/6rwh0gqltg4a/4a7ni33ds.part2.rar.html
http://turbobit.net/s2agzlvfdqd7/4a7ni33ds.part3.rar.html
http://turbobit.net/5dpibaj4vmib/4a7ni33ds.part4.rar.html
http://turbobit.net/xncyrxab3vkt/4a7ni33ds.part5.rar.html
http://turbobit.net/3xcb8irwxio4/4a7ni33ds.part6.rar.html
http://turbobit.net/uh8x6yjhpit6/4a7ni33ds.part7.rar.html
http://turbobit.net/rleaiist2clq/4a7ni33ds.part8.rar.html
Código:

http://nitroflare.com/view/F9C5CED9CB78B3A/4a7ni33ds.part1.rar
http://nitroflare.com/view/68E2DA7FF025C0F/4a7ni33ds.part2.rar
http://nitroflare.com/view/12DD96E999B2DF3/4a7ni33ds.part3.rar
http://nitroflare.com/view/1A3A62B682450F0/4a7ni33ds.part4.rar
http://nitroflare.com/view/0AB7B9E57FF9E15/4a7ni33ds.part5.rar
http://nitroflare.com/view/0FA71C5C740768B/4a7ni33ds.part6.rar
http://nitroflare.com/view/0432999EBD7388C/4a7ni33ds.part7.rar
http://nitroflare.com/view/EF285334EEBFDD4/4a7ni33ds.part8.rar

pomposos

Mensajes : 1586
Fecha de inscripción : 24/10/2011

Ver perfil de usuario

Volver arriba Ir abajo

Ver el tema anterior Ver el tema siguiente Volver arriba

- Temas similares

 
Permisos de este foro:
No puedes responder a temas en este foro.