Buscar
 
 

Resultados por:
 


Rechercher Búsqueda avanzada

Noviembre 2017
LunMarMiérJueVieSábDom
  12345
6789101112
13141516171819
20212223242526
27282930   

Calendario Calendario

Compañeros

Crear foro



Compañeros

Crear foro




Noche De Miedo (VHS-sreener)(Terro)(Español)(2011)

Ver el tema anterior Ver el tema siguiente Ir abajo

Noche De Miedo (VHS-sreener)(Terro)(Español)(2011)

Mensaje  nueve93 el Sáb Oct 08, 2011 8:31 am





Ficha tecnica

Titulo: Noche de Miedo
Año de Produccion: 2011
Reparto: Anton Yelchin, Colin Farrell, David Tennant, Imogen Poots, Toni Collette, Christopher Mintz-Plasse, Dave Franco
Genero: Terror/comedia
Duracion: 86 min

Sinopsis

Durante su ultimo año en el instituto, Charlie Brewster (Anton Yelchin) parece que por fin ha alcanzado todos sus objetivos: es uno de los estudiantes mas valorados y sale con la chica mas deseada del centro. Su popularidad es tal que ha comenzado a dejar de lado a su mejor amigo. Sin embargo, cuando Jerry (Colin Farrell) se convierte en su vecino, aunque, al principio, le parece un tipo genial, con el paso del tiempo empieza a percibir en el algo extraño. Desgraciadamente nadie, ni siquiera la madre de Charlie (Toni Collette), se da cuenta de nada. Despues de observar que en la casa de Jerry pasan cosas extrañas, Charlie llega a la conclusion de que su vecino es un vampiro que se sirve del vecindario para cazar a sus presas. Ante la incredulidad de los demas, el protagonista debera ingeniarselas para deshacerse del monstruo por si solo en esta moderna version del clasico de la comedia y el terror dirigida por Craig Gillespie.

Capturas



Codigo pelicula

Spoiler:


General

Complete name : files/nocmiedo_nueve93.avi
Format : AVI
Format/Info : Audio Video Interleave
File size : 1.34 GiB
Duration : 1h 45mn
Overall bit rate : 1 813 Kbps
Movie name : Fright Night 2011 PPVRIP IFLIX
Writing application : VirtualDubMod 1.5.10.2 (build 2540/release)
Writing library : VirtualDubMod build 2540/release

Video

ID : 0
Format : MPEG-4 Visual
Format profile : Simple@L3
Format settings, BVOP : No
Format settings, QPel : No
Format settings, GMC : No warppoints
Format settings, Matrix : Default (H.263)
Codec ID : XVID
Codec ID/Hint : XviD
Duration : 1h 45mn
Bit rate : 1 712 Kbps
Width : 720 pixels
Height : 400 pixels
Display aspect ratio : 16:9
Frame rate : 29.970 fps
Color space : YUV
Chroma subsampling : 4:2:0
Bit depth : 8 bits
Scan type : Progressive
Bits/(Pixel*Frame) : 0.198
Stream size : 1.26 GiB (94%)
Writing library : XviD 1.2.1 (UTC 2008-12-04)

Audio

ID : 1
Format : MPEG Audio
Format version : Version 1
Format profile : Layer 3
Codec ID : 55
Codec ID/Hint : MP3
Duration : 1h 38mn
Bit rate mode : Constant
Bit rate : 96.0 Kbps
Channel(s) : 2 channels
Sampling rate : 44.1 KHz
Stream size : 67.5 MiB (5%)
Alignment : Split accross interleaves
Interleave, duration : 36 ms (1.07 video frame)
Interleave, preload duration : 500 ms



Código:
http://www.wupload.com/file/336803207

http://www.fileserve.com/file/m6J5TpM

nueve93

Mensajes : 234
Fecha de inscripción : 07/10/2011

Ver perfil de usuario

Volver arriba Ir abajo

Ver el tema anterior Ver el tema siguiente Volver arriba

- Temas similares

 
Permisos de este foro:
No puedes responder a temas en este foro.