Buscar
 
 

Resultados por:
 


Rechercher Búsqueda avanzada

Noviembre 2017
LunMarMiérJueVieSábDom
  12345
6789101112
13141516171819
20212223242526
27282930   

Calendario Calendario

Compañeros

Crear foro



Compañeros

Crear foro




Monsters Inc (2001) 3D H-SBS 1080p (Ing-Lat)

Ver el tema anterior Ver el tema siguiente Ir abajo

Monsters Inc (2001) 3D H-SBS 1080p (Ing-Lat)

Mensaje  pomposos el Dom Jun 04, 2017 3:30 pm




TITULO ORIGINAL: Monsters, Inc.
ANO: 2001
DURACION: 88 min.
PAIS: USA
DIRECTOR: Pete Docter, Lee Unkrich, David Silverman
GUION: Andrew Stanton & Daniel Gerson
REPARTO: Animation
PRODUCTORA: Walt Disney Pictures / Pixar Animation Studios
GENERO: Animacion. Comedia. Fantastico. Infantil | Monstruos
Sinopsis: Monsters Inc. es la mayor empresa de miedo del mundo, y James P. Sullivan es uno de sus mejores empleados. Asustar a los ninos no es un trabajo facil, ya que todos creen que los ninos son toxicos y no pueden tener contacto con ellos. Pero un dia una nina se cuela sin querer en la empresa, provocando el caos
Código:
http://www.imdb.com/title/tt0198781/
Trailer
https://www.youtube.com/watch?v=uzkkh-1A_kY

Código:

General
Format                                  : Matroska
Format version                          : Version 3 / Version 2
File size                                : 8.49 GiB
Duration                                : 1h 32mn
Overall bit rate                        : 13.2 Mbps
Encoded date                            : UTC 2013-02-05 23:12:18
Writing application                      : mkvmerge v5.7.0 (The Whirlwind) built on Jul  8 2012 20:08:51
Writing library                          : libebml v1.2.3 + libmatroska v1.3.0
Video
ID                                      : 1
Format                                  : AVC
Format/Info                              : Advanced Video Codec
Format profile                          : High@L4.1
MultiView_Count                          : 2
MultiView_Layout                        : Side by Side (left eye first)
Format settings, CABAC                  : Yes
Format settings, ReFrames                : 4 frames
Codec ID                                : V_MPEG4/ISO/AVC
Duration                                : 1h 32mn
Bit rate                                : 11.9 Mbps
Width                                    : 1 920 pixels
Height                                  : 1 080 pixels
Display aspect ratio                    : 16:9
Frame rate mode                          : Constant
Frame rate                              : 23.976 fps
Color space                              : YUV
Chroma subsampling                      : 4:2:0
Bit depth                                : 8 bits
Scan type                                : Progressive
Bits/(Pixel*Frame)                      : 0.239
Stream size                              : 7.66 GiB (90%)
Writing library                          : x264 core 129 r2245 bc13772
Language                                : English
Default                                  : Yes
Forced                                  : No
Audio #1
ID                                      : 2
Format                                  : AC-3
Format/Info                              : Audio Coding 3
Mode extension                          : CM (complete main)
Format settings, Endianness              : Big
Codec ID                                : A_AC3
Duration                                : 1h 32mn
Bit rate mode                            : Constant
Bit rate                                : 384 Kbps
Channel(s)                              : 6 channels
Channel positions                        : Front: L C R, Side: L R, LFE
Sampling rate                            : 48.0 KHz
Bit depth                                : 16 bits
Compression mode                        : Lossy
Delay relative to video                  : 300ms
Stream size                              : 253 MiB (3%)
Language                                : Spanish
Default                                  : Yes
Forced                                  : No
Audio #2
ID                                      : 3
Format                                  : AC-3
Format/Info                              : Audio Coding 3
Mode extension                          : CM (complete main)
Format settings, Endianness              : Big
Codec ID                                : A_AC3
Duration                                : 1h 32mn
Bit rate mode                            : Constant
Bit rate                                : 640 Kbps
Channel(s)                              : 6 channels
Channel positions                        : Front: L C R, Side: L R, LFE
Sampling rate                            : 48.0 KHz
Bit depth                                : 16 bits
Compression mode                        : Lossy
Stream size                              : 422 MiB (5%)
Language                                : English
Default                                  : No
Forced                                  : No
Text
ID                                      : 4
Format                                  : UTF-8
Codec ID                                : S_TEXT/UTF8
Codec ID/Info                            : UTF-8 Plain Text
Language                                : Spanish
Default                                  : No
Forced                                  : No






Código:

https://filejoker.net/hatmufaz5vr6/mojn3d5vc2.part01.rar
https://filejoker.net/8kl661zwfu3l/mojn3d5vc2.part02.rar
https://filejoker.net/z69lzyfsjla8/mojn3d5vc2.part03.rar
https://filejoker.net/oivjfl6rffmv/mojn3d5vc2.part04.rar
https://filejoker.net/fl0jmp2zwqcp/mojn3d5vc2.part05.rar
https://filejoker.net/44y9bhj5u38o/mojn3d5vc2.part06.rar
https://filejoker.net/nqkm84q4dh4g/mojn3d5vc2.part07.rar
https://filejoker.net/nb6mkwidpcxu/mojn3d5vc2.part08.rar
https://filejoker.net/wcu92ow62im6/mojn3d5vc2.part09.rar
https://filejoker.net/cnujeyg03j1d/mojn3d5vc2.part10.rar

pomposos

Mensajes : 2212
Fecha de inscripción : 24/10/2011

Ver perfil de usuario

Volver arriba Ir abajo

Ver el tema anterior Ver el tema siguiente Volver arriba


 
Permisos de este foro:
No puedes responder a temas en este foro.