Buscar
 
 

Resultados por:
 


Rechercher Búsqueda avanzada

Noviembre 2017
LunMarMiérJueVieSábDom
  12345
6789101112
13141516171819
20212223242526
27282930   

Calendario Calendario

Compañeros

Crear foro



Compañeros

Crear foro




Midnight In Paris (DVDScreener)(Español)(Comedia)(2011)

Ver el tema anterior Ver el tema siguiente Ir abajo

Midnight In Paris (DVDScreener)(Español)(Comedia)(2011)

Mensaje  nueve93 el Sáb Oct 08, 2011 4:49 am





Ficha tecnica

AÑO: 2011
GENERO: Comedia. Romance | Comedia romantica. Viajes en el tiempo.
REPARTO: Owen Wilson, Rachel McAdams, Marion Cotillard, Michael Sheen, Kathy Bates, Carla Bruni, Alison Pill, Tom Hiddleston, Lea Seydoux, Adrien Brody, Kurt Fuller, Corey Stoll, Mimi Kennedy, Gad Elmaleh, Nina Arianda, Marcial Di Fonzo Bo, Adrien de Van

Sinopsis

Un escritor norteamericano algo bohemio (Owen Wilson) llega con su prometida Inez (Rachel McAdams) y los padres de esta a Paris. Mientras vaga por las calles soñando con los felices años 20, cae bajo una especie de hechizo que hace que, a medianoche, en algun lugar del barrio Latino, se vea transportado a otro universo donde va a conocer a personajes que jamas imaginaria iba a conocer...

Capturas



codigo pelicula

Spoiler:


General

Complete name : files/midngtpars_nueve93.avi
Format : AVI
Format/Info : Audio Video Interleave
File size : 719 MiB
Duration : 1h 33mn
Overall bit rate : 1 071 Kbps
Writing application : VirtualDubMod 1.5.10.2 (build 2540/release)
Writing library : VirtualDubMod build 2540/release

Video

ID : 0
Format : MPEG-4 Visual
Format profile : Advanced Simple@L5
Format settings, BVOP : Yes
Format settings, QPel : No
Format settings, GMC : No warppoints
Format settings, Matrix : Default (H.263)
Muxing mode : Packed bitstream
Codec ID : XVID
Codec ID/Hint : XviD
Duration : 1h 33mn
Bit rate : 902 Kbps
Width : 624 pixels
Height : 352 pixels
Display aspect ratio : 16:9
Frame rate : 23.976 fps
Original frame rate : 25.000 fps
Color space : YUV
Chroma subsampling : 4:2:0
Bit depth : 8 bits
Scan type : Progressive
Bits/(Pixel*Frame) : 0.171
Stream size : 606 MiB (84%)
Writing library : XviD 1.2.1 (UTC 2008-12-04)

Audio

ID : 1
Format : MPEG Audio
Format version : Version 1
Format profile : Layer 3
Codec ID : 55
Codec ID/Hint : MP3
Duration : 1h 33mn
Bit rate mode : Constant
Bit rate : 160 Kbps
Channel(s) : 2 channels
Sampling rate : 44.1 KHz
Video delay : 24ms
Stream size : 107 MiB (15%)
Alignment : Split accross interleaves
Interleave, duration : 42 ms (1.00 video frame)
Interleave, preload duration : 500 ms



Links intercambiables

Código:
http://www.filesonic.com/file/2403475114

http://ul.to/utpeb28g

nueve93

Mensajes : 215
Fecha de inscripción : 07/10/2011

Ver perfil de usuario

Volver arriba Ir abajo

Ver el tema anterior Ver el tema siguiente Volver arriba


 
Permisos de este foro:
No puedes responder a temas en este foro.