Buscar
 
 

Resultados por:
 


Rechercher Búsqueda avanzada

Palabras claves

excel  

Septiembre 2017
LunMarMiérJueVieSábDom
    123
45678910
11121314151617
18192021222324
252627282930 

Calendario Calendario

Compañeros

Crear foro



Compañeros

Crear foro




Life of Pi (2012) 3D H-SBS 1080p (Ing-Lat)

Ver el tema anterior Ver el tema siguiente Ir abajo

Life of Pi (2012) 3D H-SBS 1080p (Ing-Lat)

Mensaje  pomposos el Vie Jun 02, 2017 6:56 pm




TITULO ORIGINAL: Life of Pi
ANO: 2012
DURACION: 125 min.
PAIS: USA
DIRECTOR: Ang Lee
GUION: David Magee (Novela: Yann Martel)
REPARTO: Suraj Sharma, Irrfan Khan, Rafe Spall, Tabu, Adril Hussain, Shravanthi Sainath, Ayush Tandon, Vibish Sivakumar, Gerard Depardieu
PRODUCTORA: Fox 2000 Pictures / Haishang Films
GENERO: Aventuras. Drama | Aventuras marinas. Supervivencia. 3-D. Animales
Sinopsis: Tras un naufragio en medio del oceano Pacifico, el joven hindu Pi, hijo de un guarda de zoo que viajaba de la India a Canada, se encuentra en un bote salvavidas con un unico superviviente, un tigre de bengala con quien labrara una emocionante, increible e inesperada relacion.
Código:
http://www.imdb.com/title/tt0454876/
Trailer
https://youtu.be/j9Hjrs6WQ8M

Código:

General
Format                                  : Matroska
Format version                          : Version 2
File size                                : 14.6 GiB
Duration                                : 2h 6mn
Overall bit rate                        : 16.5 Mbps
Encoded date                            : UTC 2013-03-02 16:56:14
Writing application                      : mkvmerge v5.7.0 (The Whirlwind) built on Jul  8 2012 20:08:51
Writing library                          : libebml v1.2.3 + libmatroska v1.3.0
Video
ID                                      : 1
Format                                  : AVC
Format/Info                              : Advanced Video Codec
Format profile                          : High@L4.1
Format settings, CABAC                  : Yes
Format settings, ReFrames                : 2 frames
Codec ID                                : V_MPEG4/ISO/AVC
Duration                                : 2h 6mn
Bit rate                                : 13.5 Mbps
Width                                    : 1 920 pixels
Height                                  : 1 080 pixels
Display aspect ratio                    : 16:9
Frame rate mode                          : Constant
Frame rate                              : 23.976 fps
Color space                              : YUV
Chroma subsampling                      : 4:2:0
Bit depth                                : 8 bits
Scan type                                : Progressive
Bits/(Pixel*Frame)                      : 0.272
Stream size                              : 12.0 GiB (82%)
Writing library                          : x264 core
Language                                : English
Default                                  : Yes
Forced                                  : No
Color primaries                          : BT.709
Transfer characteristics                : BT.709
Matrix coefficients                      : BT.709
Audio #1
ID                                      : 2
Format                                  : AC-3
Format/Info                              : Audio Coding 3
Mode extension                          : CM (complete main)
Format settings, Endianness              : Big
Codec ID                                : A_AC3
Duration                                : 2h 6mn
Bit rate mode                            : Constant
Bit rate                                : 448 Kbps
Channel(s)                              : 6 channels
Channel positions                        : Front: L C R, Side: L R, LFE
Sampling rate                            : 48.0 KHz
Bit depth                                : 16 bits
Compression mode                        : Lossy
Stream size                              : 407 MiB (3%)
Title                                    : AC3 5.1
Language                                : Spanish
Default                                  : Yes
Forced                                  : No
Audio #2
ID                                      : 3
Format                                  : AC-3
Format/Info                              : Audio Coding 3
Mode extension                          : CM (complete main)
Format settings, Endianness              : Big
Codec ID                                : A_AC3
Duration                                : 2h 6mn
Bit rate mode                            : Constant
Bit rate                                : 640 Kbps
Channel(s)                              : 6 channels
Channel positions                        : Front: L C R, Side: L R, LFE
Sampling rate                            : 48.0 KHz
Bit depth                                : 16 bits
Compression mode                        : Lossy
Stream size                              : 581 MiB (4%)
Title                                    : AC3 5.1
Language                                : English
Default                                  : No
Forced                                  : No
Audio #3
ID                                      : 4
Format                                  : DTS
Format/Info                              : Digital Theater Systems
Format profile                          : ES
Mode                                    : 16
Format settings, Endianness              : Big
Codec ID                                : A_DTS
Duration                                : 2h 6mn
Bit rate mode                            : Constant
Bit rate                                : 1 509 Kbps
Channel(s)                              : 6 channels
Channel positions                        : Front: L C R, Side: L R, LFE
Sampling rate                            : 48.0 KHz
Bit depth                                : 24 bits
Compression mode                        : Lossy
Stream size                              : 1.34 GiB (9%)
Title                                    : DTS 5.1
Language                                : English
Default                                  : No
Forced                                  : No
Text #1
ID                                      : 5
Format                                  : UTF-8
Codec ID                                : S_TEXT/UTF8
Codec ID/Info                            : UTF-8 Plain Text
Language                                : Spanish
Default                                  : No
Forced                                  : No
Text #2
ID                                      : 6
Format                                  : UTF-8
Codec ID                                : S_TEXT/UTF8
Codec ID/Info                            : UTF-8 Plain Text
Language                                : English
Default                                  : No
Forced                                  : No







Código:

https://filejoker.net/u07xtw0rdqau/lip3d6evs.part01.rar
https://filejoker.net/y8vrl054ktkw/lip3d6evs.part02.rar
https://filejoker.net/i6tp1y3faie0/lip3d6evs.part03.rar
https://filejoker.net/mtd6z2s23yi8/lip3d6evs.part04.rar
https://filejoker.net/6mgvisfa2jnc/lip3d6evs.part05.rar
https://filejoker.net/hv90i0e28zx9/lip3d6evs.part06.rar
https://filejoker.net/j67439fm46jn/lip3d6evs.part07.rar
https://filejoker.net/nmbj4vww22fj/lip3d6evs.part08.rar
https://filejoker.net/su9jbp9zr3id/lip3d6evs.part09.rar
https://filejoker.net/fsk3982mozms/lip3d6evs.part10.rar
https://filejoker.net/fs8kc2ns66nq/lip3d6evs.part11.rar
https://filejoker.net/c9730gsxn1dk/lip3d6evs.part12.rar
https://filejoker.net/m0vvx9h77zqn/lip3d6evs.part13.rar
https://filejoker.net/q8utemoqfy5q/lip3d6evs.part14.rar
https://filejoker.net/3fv9bcfvzoj3/lip3d6evs.part15.rar
https://filejoker.net/gglg03jfjfz1/lip3d6evs.part16.rar

pomposos

Mensajes : 1564
Fecha de inscripción : 24/10/2011

Ver perfil de usuario

Volver arriba Ir abajo

Ver el tema anterior Ver el tema siguiente Volver arriba

- Temas similares

 
Permisos de este foro:
No puedes responder a temas en este foro.