Buscar
 
 

Resultados por:
 


Rechercher Búsqueda avanzada

Palabras claves

Últimos temas
» V.A. 90s Aerobics Super Hits [2016]
Vie Jul 21, 2017 10:11 am por pomposos

» V.A. Morphic Resonance Trip To The Stars [2017]
Vie Jul 21, 2017 9:50 am por pomposos

» V.A. Tomorrow is a Dream (Synthwave Mix) [2017]
Vie Jul 21, 2017 9:29 am por pomposos

» V.A. The Rise of the Synths EP 1 [2017]
Vie Jul 21, 2017 9:08 am por pomposos

» V.A. Big Love 20 from Love Radio (18.12.2016) [2016]
Vie Jul 21, 2017 8:47 am por pomposos

» V.A. Ascriliated [2017]
Vie Jul 21, 2017 8:26 am por pomposos

» V.A. Destinations Vol 4 Compiled By Cubixx [2017]
Vie Jul 21, 2017 8:05 am por pomposos

» V.A. Focus Me Lounge [2016]
Vie Jul 21, 2017 7:41 am por pomposos

» V.A. Blues Forever Vol.74 [2017]
Vie Jul 21, 2017 7:19 am por pomposos

Julio 2017
LunMarMiérJueVieSábDom
     12
3456789
10111213141516
17181920212223
24252627282930
31      

Calendario Calendario

Compañeros

Crear foro



Compañeros

Crear foro




Freerunner [BDRip][VOSE][Accion][2011]

Ver el tema anterior Ver el tema siguiente Ir abajo

Freerunner [BDRip][VOSE][Accion][2011]

Mensaje  nueve93 el Vie Oct 07, 2011 6:19 pm







Titulo original: Freerunner
Titulo español: Carrera Sin Reglas
Idioma: Ingles
País: Estados Unidos
Año: 2011
Subtitulos: Español pegados al vídeo
Género: Acción
Tamaño: 994MB aprox.
Calidad Imagen: BDRip
Formato: AVI



Con una bomba de tiempo en su cuello, un joven corre contra el reloj y todo tipo de enemigos al ir de un extremo a otro de la ciudad para intentar salvarse a sí mismo y su novia.





Codigo

Spoiler:


General

Complete name : files/Freerunner_nueve93.avi
Format : AVI
Format/Info : Audio Video Interleave
File size : 995 MiB
Duration : 1h 27mn
Overall bit rate : 1 585 Kbps
Writing application : VirtualDubMod 1.5.10.2 (build 2542/release)
Writing library : VirtualDubMod build 2542/release

Video

ID : 0
Format : MPEG-4 Visual
Format profile : Advanced Simple@L5
Format settings, BVOP : Yes
Format settings, QPel : No
Format settings, GMC : No warppoints
Format settings, Matrix : Default (H.263)
Muxing mode : Packed bitstream
Codec ID : XVID
Codec ID/Hint : XviD
Duration : 1h 27mn
Bit rate : 1 193 Kbps
Width : 720 pixels
Height : 304 pixels
Display aspect ratio : 2.35:1
Frame rate : 23.976 fps
Color space : YUV
Chroma subsampling : 4:2:0
Bit depth : 8 bits
Scan type : Progressive
Bits/(Pixel*Frame) : 0.227
Stream size : 749 MiB (75%)
Writing library : XviD 64

Audio

ID : 1
Format : AC-3
Format/Info : Audio Coding 3
Mode extension : CM (complete main)
Codec ID : 2000
Duration : 1h 27mn
Bit rate mode : Constant
Bit rate : 384 Kbps
Channel(s) : 6 channels
Channel positions : Front: L C R, Side: L R, LFE
Sampling rate : 48.0 KHz
Bit depth : 16 bits
Stream size : 241 MiB (24%)
Alignment : Split accross interleaves
Interleave, duration : 64 ms (1.53 video frames)
Interleave, preload duration : 500 ms



Código:
http://www.filesonic.com/file/2395073661

http://ul.to/3cfpf1kd

nueve93

Mensajes : 98
Fecha de inscripción : 07/10/2011

Ver perfil de usuario

Volver arriba Ir abajo

Ver el tema anterior Ver el tema siguiente Volver arriba

- Temas similares

 
Permisos de este foro:
No puedes responder a temas en este foro.