Buscar
 
 

Resultados por:
 


Rechercher Búsqueda avanzada

Palabras claves

excel  

Últimos temas
Septiembre 2017
LunMarMiérJueVieSábDom
    123
45678910
11121314151617
18192021222324
252627282930 

Calendario Calendario

Compañeros

Crear foro



Compañeros

Crear foro




Hotel Transylvania 2 (2015) 3D H-SBS 1080p (Ing-Lat)

Ver el tema anterior Ver el tema siguiente Ir abajo

Hotel Transylvania 2 (2015) 3D H-SBS 1080p (Ing-Lat)

Mensaje  pomposos el Lun Mayo 29, 2017 7:12 am




Titulo original: Hotel Transylvania 2
Ano: 2015
Duracion: 89 min.
Pais: Estados Unidos
Director: Genndy Tartakovsky
Guion: Adam Sandler, Robert Smigel
Musica: Mark Mothersbaugh
Fotografia: Animation
Reparto: Animation
Productora: Columbia Pictures / Sony Pictures Animation / Sony Pictures Digital
Genero: Animacion. Comedia. Fantastico | Monstruos. Secuela. 3-D
Sinopsis: Todo parece mejorar en el Hotel Transilvania. La rigida norma establecida por Dracula de �solo para monstruos� se ha suprimido y se aceptan tambien huespedes humanos. Lo que preocupa al conde es que que su adorable nieto Dennis, medio humano y medio vampiro, no de senal alguna de vampirismo. Aprovechando que Mavis ha ido a visitar a sus suegros humanos, Dracula recluta a sus amigos Frank, Murray, Wayne y Griffin para hacer que Dennis pase por un campamento de �entrenamiento de monstruos�. Lo que ignoran es que Vlad, el grunon padre de Dracula, esta a punto de llegar al hotel. Y cuando descubra que su bisnieto no es de sangre pura y que los humanos pueden frecuentar el establecimiento las cosas se complicaran. Secuela de Hotel Transilvania (2012).
Código:
http://www.imdb.com/title/tt2510894/
Trailer
https://youtu.be/wa9ZKfCDerY

Código:

General
Format : Matroska
Format version : Version 4 / Version 2
File size : 6.61 GiB
Duration : 1h 29mn
Overall bit rate : 10.6 Mbps
Encoded date : UTC 2015-12-28 21:12:10
Writing application : mkvmerge v7.1.0 (Good Love) 64bit built on Jul 27 2014 13:06:55
Writing library : libebml v1.3.0 + libmatroska v1.4.1
Video
ID : 1
Format : AVC
Format/Info : Advanced Video Codec
Format profile : High@L4.1
MultiView_Count : 2
MultiView_Layout : Side by Side (left eye first)
Format settings, CABAC : Yes
Format settings, ReFrames : 4 frames
Codec ID : V_MPEG4/ISO/AVC
Duration : 1h 29mn
Bit rate : 8 000 Kbps
Width : 1 920 pixels
Height : 1 080 pixels
Display aspect ratio : 16:9
Frame rate mode : Constant
Frame rate : 23.976 fps
Color space : YUV
Chroma subsampling : 4:2:0
Bit depth : 8 bits
Scan type : Progressive
Bits/(Pixel*Frame) : 0.161
Stream size : 4.86 GiB (74%)
Writing library : x264 core 148 r2638 7599210
Language : English
Default : Yes
Forced : No
Audio #1
ID : 2
Format : AC-3
Format/Info : Audio Coding 3
Mode extension : CM (complete main)
Format settings, Endianness : Big
Codec ID : A_AC3
Duration : 1h 29mn
Bit rate mode : Constant
Bit rate : 640 Kbps
Channel(s) : 6 channels
Channel positions : Front: L C R, Side: L R, LFE
Sampling rate : 48.0 KHz
Bit depth : 16 bits
Compression mode : Lossy
Stream size : 409 MiB (6%)
Title : AC3 5.1 Bluray
Language : Spanish
Default : Yes
Forced : No
Audio #2
ID : 3
Format : AC-3
Format/Info : Audio Coding 3
Mode extension : CM (complete main)
Format settings, Endianness : Big
Codec ID : A_AC3
Duration : 1h 29mn
Bit rate mode : Constant
Bit rate : 448 Kbps
Channel(s) : 6 channels
Channel positions : Front: L C R, Side: L R, LFE
Sampling rate : 48.0 KHz
Bit depth : 16 bits
Compression mode : Lossy
Stream size : 286 MiB (4%)
Title : AC3 5.1
Language : English
Default : No
Forced : No
Audio #3
ID : 4
Format : DTS
Format/Info : Digital Theater Systems
Mode : 16
Format settings, Endianness : Big
Codec ID : A_DTS
Duration : 1h 29mn
Bit rate mode : Constant
Bit rate : 1 509 Kbps
Channel(s) : 6 channels
Channel positions : Front: L C R, Side: L R, LFE
Sampling rate : 48.0 KHz
Bit depth : 24 bits
Compression mode : Lossy
Stream size : 964 MiB (14%)
Title : DTS 5.1
Language : English
Default : No
Forced : No
Text
ID : 5
Format : UTF-8
Codec ID : S_TEXT/UTF8
Codec ID/Info : UTF-8 Plain Text
Language : Spanish
Default : No
Forced : No







Código:

https://filejoker.net/n009eya6gka6/ht3df56rf.part1.rar
https://filejoker.net/rx7raip33r07/ht3df56rf.part2.rar
https://filejoker.net/vvjtrqhfr6r9/ht3df56rf.part3.rar
https://filejoker.net/w4wq7fff6vtp/ht3df56rf.part4.rar
https://filejoker.net/bwfs18ivtlla/ht3df56rf.part5.rar
https://filejoker.net/i2wpfxfvuq11/ht3df56rf.part6.rar
https://filejoker.net/1a0bovblch26/ht3df56rf.part7.rar
https://filejoker.net/fq9zf88yog43/ht3df56rf.part8.rar

pomposos

Mensajes : 1591
Fecha de inscripción : 24/10/2011

Ver perfil de usuario

Volver arriba Ir abajo

Ver el tema anterior Ver el tema siguiente Volver arriba

- Temas similares

 
Permisos de este foro:
No puedes responder a temas en este foro.