Buscar
 
 

Resultados por:
 


Rechercher Búsqueda avanzada

Palabras claves

Julio 2017
LunMarMiérJueVieSábDom
     12
3456789
10111213141516
17181920212223
24252627282930
31      

Calendario Calendario

Compañeros

Crear foro



Compañeros

Crear foro




Finding Dory (2016) 3D H-SBS 1080p (Ing-Lat)

Ver el tema anterior Ver el tema siguiente Ir abajo

Finding Dory (2016) 3D H-SBS 1080p (Ing-Lat)

Mensaje  pomposos el Dom Mayo 28, 2017 1:00 am




Original title: Finding Dory
Year: 2016
Duration: 103 min.
Country: United States
Director: Andrew Stanton, Angus MacLane
Starring:
Studio: Pixar Animation Studios / Walt Disney Pictures
Genre: Animation. Adventure. Comedy | Marine adventures. Sequel. Pixar. 3-D
Synopsis: A year after the events narrated in "Finding Nemo", Dory lives peacefully with Marlin and his son Nemo. But during a trip to see how the stingrays migrate back home, Dory's memory problems seem to disappear for a second: he remembers that he has a family and immediately decides to embark on a trip to reunite with his parents, whom he lost years ago
Código:
http://www.imdb.com/title/tt2277860/
Trailer
https://youtu.be/BUc24VVq7wo

Código:

General
Format : Matroska
Format version : Version 4 / Version 2
File size : 8.52 GiB
Duration : 1 h 37 min
Overall bit rate : 12.6 Mb/s
Encoded date : UTC 2017-02-28 23:40:54
Writing application : mkvmerge v9.5.0 (Quiet Fire) 64bit
Writing library : libebml v1.3.4 + libmatroska v1.4.5
Video
ID : 1
Format : AVC
Format/Info : Advanced Video Codec
Format profile : High@L4.1
MultiView_Count : 2
MultiView_Layout : Side by Side (left eye first)
Format settings, CABAC : Yes
Format settings, ReFrames : 4 frames
Codec ID : V_MPEG4/ISO/AVC
Duration : 1 h 37 min
Bit rate : 9 777 kb/s
Width : 1 920 pixels
Height : 1 080 pixels
Display aspect ratio : 16:9
Frame rate mode : Constant
Frame rate : 23.976 (24000/1001) FPS
Color space : YUV
Chroma subsampling : 4:2:0
Bit depth : 8 bits
Scan type : Progressive
Bits/(Pixel*Frame) : 0.197
Stream size : 6.63 GiB (78%)
Writing library : x264 core 148 r2705 3f5ed56
Language : English
Default : Yes
Forced : No
Color range : Limited
Matrix coefficients : BT.709
Audio #1
ID : 2
Format : AC-3
Format/Info : Audio Coding 3
Mode extension : CM (complete main)
Format settings, Endianness : Big
Codec ID : A_AC3
Duration : 1 h 37 min
Bit rate mode : Constant
Bit rate : 640 kb/s
Channel(s) : 6 channels
Channel positions : Front: L C R, Side: L R, LFE
Sampling rate : 48.0 kHz
Frame rate : 31.250 FPS (1536 spf)
Bit depth : 16 bits
Compression mode : Lossy
Stream size : 444 MiB (5%)
Title : AC3 5.1 Bluray
Language : Spanish
Default : Yes
Forced : No
Audio #2
ID : 3
Format : AC-3
Format/Info : Audio Coding 3
Mode extension : CM (complete main)
Format settings, Endianness : Big
Codec ID : A_AC3
Duration : 1 h 37 min
Bit rate mode : Constant
Bit rate : 640 kb/s
Channel(s) : 6 channels
Channel positions : Front: L C R, Side: L R, LFE
Sampling rate : 48.0 kHz
Frame rate : 31.250 FPS (1536 spf)
Bit depth : 16 bits
Compression mode : Lossy
Stream size : 444 MiB (5%)
Title : AC3 5.1
Language : English
Default : No
Forced : No
Audio #3
ID : 4
Format : DTS
Format/Info : Digital Theater Systems
Mode : 16
Format settings, Endianness : Big
Codec ID : A_DTS
Duration : 1 h 37 min
Bit rate mode : Constant
Bit rate : 1 509 kb/s
Channel(s) : 6 channels
Channel positions : Front: L C R, Side: L R, LFE
Sampling rate : 48.0 kHz
Frame rate : 93.750 FPS (512 spf)
Bit depth : 24 bits
Compression mode : Lossy
Stream size : 1.02 GiB (12%)
Title : DTS
Language : English
Default : No
Forced : No
Text
ID : 5
Format : UTF-8
Codec ID : S_TEXT/UTF8
Codec ID/Info : UTF-8 Plain Text
Duration : 1 h 35 min
Bit rate : 80 b/s
Count of elements : 1450
Stream size : 56.4 KiB (0%)
Title : Subt_Complet
Language : Spanish
Default : No
Forced : No





Código:

https://filejoker.net/ianoojyoqtaq/fi3fg5hge.part01.rar
https://filejoker.net/ok9fcwyfn8ls/fi3fg5hge.part02.rar
https://filejoker.net/bn4d9d45a5zc/fi3fg5hge.part03.rar
https://filejoker.net/l8dlry9wpy6t/fi3fg5hge.part04.rar
https://filejoker.net/g282exdw8bc1/fi3fg5hge.part05.rar
https://filejoker.net/ggsab02dipk0/fi3fg5hge.part06.rar
https://filejoker.net/pcbe9ua5gviq/fi3fg5hge.part07.rar
https://filejoker.net/oqu8l51cfbsw/fi3fg5hge.part08.rar
https://filejoker.net/8u1sckwhqw53/fi3fg5hge.part09.rar
https://filejoker.net/t4rgtxilbcje/fi3fg5hge.part10.rar

pomposos

Mensajes : 727
Fecha de inscripción : 24/10/2011

Ver perfil de usuario

Volver arriba Ir abajo

Ver el tema anterior Ver el tema siguiente Volver arriba

- Temas similares

 
Permisos de este foro:
No puedes responder a temas en este foro.