Buscar
 
 

Resultados por:
 


Rechercher Búsqueda avanzada

Palabras claves

Últimos temas
Julio 2017
LunMarMiérJueVieSábDom
     12
3456789
10111213141516
17181920212223
24252627282930
31      

Calendario Calendario

Compañeros

Crear foro



Compañeros

Crear foro




Gravity (2013) 3D H-SBS 1080p (Ing-Lat)

Ver el tema anterior Ver el tema siguiente Ir abajo

Gravity (2013) 3D H-SBS 1080p (Ing-Lat)

Mensaje  pomposos el Dom Mayo 28, 2017 12:42 am




TITULO ORIGINAL: Gravity
ANO: 2013
DURACION: 90 min.
PAIS: USA
DIRECTOR: Alfonso Cuaron
GUION: Alfonso Cuaron, Jonas Cuaron
REPARTO: Sandra Bullock, George Clooney
PRODUCTORA: Warner Bros. Pictures / Esperanto Filmoj / Heyday Films
GENERO: Thriller. Drama. Aventuras | Aventura espacial. Supervivencia. 3-D
Sinopsis: Mientras reparan un satelite fuera de su nave, dos astronautas sufren un grave accidente y quedan flotando en el espacio. Son la doctora Ryan Stone, una brillante ingeniera que realiza su primera mision espacial, y el veterano astronauta Matt Kowalsky. La mision exterior parecia rutinaria, pero una lluvia de basura espacial les alcanza y se produce el desastre: el satelite y parte de la nave quedan destrozados, dejando a Ryan y Matt completamente solos, momento a partir del cual intentaran por todos los medios buscar una solucion para volver a la Tierra.
Código:
http://www.imdb.com/title/tt1454468/
Trailer
https://youtu.be/Ud2OXg92OLU

Código:

General
Format                                  : Matroska
Format version                          : Version 2
File size                                : 9.49 GiB
Duration                                : 1h 30mn
Overall bit rate                        : 14.9 Mbps
Encoded date                            : UTC 2014-02-07 22:36:27
Writing application                      : mkvmerge v5.7.0 (The Whirlwind) built on Jul  8 2012 20:08:51
Writing library                          : libebml v1.2.3 + libmatroska v1.3.0
Video
ID                                      : 1
Format                                  : AVC
Format/Info                              : Advanced Video Codec
Format profile                          : High@L4.1
Format settings, CABAC                  : Yes
Format settings, ReFrames                : 2 frames
Muxing mode                              : Header stripping
Codec ID                                : V_MPEG4/ISO/AVC
Duration                                : 1h 30mn
Bit rate                                : 12.1 Mbps
Width                                    : 1 920 pixels
Height                                  : 1 080 pixels
Display aspect ratio                    : 16:9
Frame rate mode                          : Constant
Frame rate                              : 23.976 fps
Color space                              : YUV
Chroma subsampling                      : 4:2:0
Bit depth                                : 8 bits
Scan type                                : Progressive
Bits/(Pixel*Frame)                      : 0.244
Stream size                              : 7.69 GiB (81%)
Writing library                          : x264 core
Language                                : English
Default                                  : Yes
Forced                                  : No
Color primaries                          : BT.709
Transfer characteristics                : BT.709
Matrix coefficients                      : BT.709
Audio #1
ID                                      : 2
Format                                  : AC-3
Format/Info                              : Audio Coding 3
Mode extension                          : CM (complete main)
Format settings, Endianness              : Big
Muxing mode                              : Header stripping
Codec ID                                : A_AC3
Duration                                : 1h 30mn
Bit rate mode                            : Constant
Bit rate                                : 384 Kbps
Channel(s)                              : 6 channels
Channel positions                        : Front: L C R, Side: L R, LFE
Sampling rate                            : 48.0 KHz
Bit depth                                : 16 bits
Compression mode                        : Lossy
Stream size                              : 250 MiB (3%)
Title                                    : AC3
Language                                : Spanish
Default                                  : Yes
Forced                                  : No
Audio #2
ID                                      : 3
Format                                  : AC-3
Format/Info                              : Audio Coding 3
Mode extension                          : CM (complete main)
Format settings, Endianness              : Big
Muxing mode                              : Header stripping
Codec ID                                : A_AC3
Duration                                : 1h 30mn
Bit rate mode                            : Constant
Bit rate                                : 640 Kbps
Channel(s)                              : 6 channels
Channel positions                        : Front: L C R, Side: L R, LFE
Sampling rate                            : 48.0 KHz
Bit depth                                : 16 bits
Compression mode                        : Lossy
Stream size                              : 416 MiB (4%)
Title                                    : AC3
Language                                : English
Default                                  : No
Forced                                  : No
Audio #3
ID                                      : 4
Format                                  : DTS
Format/Info                              : Digital Theater Systems
Mode                                    : 16
Format settings, Endianness              : Big
Muxing mode                              : Header stripping
Codec ID                                : A_DTS
Duration                                : 1h 30mn
Bit rate mode                            : Constant
Bit rate                                : 1 509 Kbps
Channel(s)                              : 6 channels
Channel positions                        : Front: L C R, Side: L R, LFE
Sampling rate                            : 48.0 KHz
Bit depth                                : 16 bits
Compression mode                        : Lossy
Stream size                              : 982 MiB (10%)
Title                                    : DTS
Language                                : English
Default                                  : No
Forced                                  : No
Text
ID                                      : 5
Format                                  : VobSub
Muxing mode                              : zlib
Codec ID                                : S_VOBSUB
Codec ID/Info                            : The same subtitle format used on DVDs
Language                                : Spanish
Default                                  : Yes
Forced                                  : No







Código:

https://filejoker.net/5sv7hvym6wdm/grav3dfv6d.part01.rar
https://filejoker.net/omgjgahyaa50/grav3dfv6d.part02.rar
https://filejoker.net/wfxy48ivm05u/grav3dfv6d.part03.rar
https://filejoker.net/4vob7rwdltcj/grav3dfv6d.part04.rar
https://filejoker.net/0zkllbems4bw/grav3dfv6d.part05.rar
https://filejoker.net/54wjlvnitff0/grav3dfv6d.part06.rar
https://filejoker.net/cntnc9jm8y9h/grav3dfv6d.part07.rar
https://filejoker.net/erj1xcbxaj8a/grav3dfv6d.part08.rar
https://filejoker.net/ydt87rhzb3wi/grav3dfv6d.part09.rar
https://filejoker.net/6ytxz6s7a2c2/grav3dfv6d.part10.rar
https://filejoker.net/c9ynbe4327gh/grav3dfv6d.part11.rar

pomposos

Mensajes : 680
Fecha de inscripción : 24/10/2011

Ver perfil de usuario

Volver arriba Ir abajo

Ver el tema anterior Ver el tema siguiente Volver arriba

- Temas similares

 
Permisos de este foro:
No puedes responder a temas en este foro.