Buscar
 
 

Resultados por:
 


Rechercher Búsqueda avanzada

Palabras claves

excel  

Últimos temas
Septiembre 2017
LunMarMiérJueVieSábDom
    123
45678910
11121314151617
18192021222324
252627282930 

Calendario Calendario

Compañeros

Crear foro



Compañeros

Crear foro




Wreck-It Ralph (2012) 3D H-SBS 1080p (Ing-Lat)

Ver el tema anterior Ver el tema siguiente Ir abajo

Wreck-It Ralph (2012) 3D H-SBS 1080p (Ing-Lat)

Mensaje  pomposos el Vie Mayo 26, 2017 7:34 pm




TITULO ORIGINAL: Wreck-It Ralph
ANO: 2012
DURACION: 101 min.
PAIS: USA
DIRECTOR: Rich Moore
GUION: Phil Johnston
REPARTO: Animation
PRODUCTORA: Walt Disney Animation Studios
GENERO: Animacion. Fantastico. Comedia | Videojuego. 3-D
Código:
http://www.imdb.es/title/tt1772341/
PREMIOS: 2012: Oscar: Nominada a Mejor pelicula de animacion
2012: 5 Premios Annie, incluyendo Mejor pelicula. 10 nominaciones
2012: Critics Choice Awards: Mejor pelicula de animacion
2012: Globos de Oro: Nominada a Mejor pelicula de animacion
2012: Satellite Awards: Nominado a Mejor largometraje de animacion
2012: National Board of Review (NBR): Mejor largometraje de animacion
2012: Producers Guild of America (PGA): Mejor pelicula de animacion
Sinopsis: Durante decadas, Ralph (voz original en ingles de John C. Reilly) ha vivido a la sombra de Repara-Felix Jr., el chico bueno de su videojuego. Cansado de ser el malo de la historia, Ralph decide tomar el asunto por sus propias y gigantes manos, y se lanza en un viaje a traves de los distintos mundos y generaciones de videojuegos para demostrarle al mundo que el tambien puede ser un heroe.
Trailer
https://www.youtube.com/watch?v=vf4r5q8-aWo&feature=youtu.be

Código:

General
Format: Matroska
Format version: Version 2
File size: 11.8 GiB
Duration: 1h 41mn
Overall bit rate: 16.7 Mbps
Encoded date: UTC 2013-02-17 20:09:46
Writing application: mkvmerge v5.7.0 ('The Whirlwind') built on Jul  8 2012 20:08:51
Writing library: libebml v1.2.3 + libmatroska v1.3.0
Video
ID: 1
Format: AVC
Format/Info : Advanced Video Codec
Format profile : High@L4.1
Format settings, CABAC : Yes
Format settings, ReFrames                : 2 frames
Codec ID                                : V_MPEG4/ISO/AVC
Duration                                : 1h 41mn
Bit rate                                : 13.6 Mbps
Width                                    : 1 920 pixels
Height                                  : 1 080 pixels
Display aspect ratio                    : 16:9
Frame rate mode                          : Constant
Frame rate                              : 23.976 fps
Color space                              : YUV
Chroma subsampling                      : 4:2:0
Bit depth                                : 8 bits
Scan type                                : Progressive
Bits/(Pixel*Frame)                      : 0.273
Stream size                              : 9.61 GiB (81%)
Writing library                          : x264 core
Language                                : English
Default                                  : Yes
Forced                                  : No
Color primaries                          : BT.709
Transfer characteristics                : BT.709
Matrix coefficients                      : BT.709
Audio #1
ID                                      : 2
Format                                  : AC-3
Format/Info                              : Audio Coding 3
Mode extension                          : CM (complete main)
Format settings, Endianness              : Big
Codec ID                                : A_AC3
Duration                                : 1h 41mn
Bit rate mode                            : Constant
Bit rate                                : 640 Kbps
Channel(s)                              : 6 channels
Channel positions                        : Front: L C R, Side: L R, LFE
Sampling rate                            : 48.0 KHz
Bit depth                                : 16 bits
Compression mode                        : Lossy
Stream size                              : 463 MiB (4%)
Title                                    : AC3 5.1
Language                                : Spanish
Default                                  : Yes
Forced                                  : No
Audio #2
ID                                      : 3
Format                                  : AC-3
Format/Info                              : Audio Coding 3
Mode extension                          : CM (complete main)
Format settings, Endianness              : Big
Codec ID                                : A_AC3
Duration                                : 1h 41mn
Bit rate mode                            : Constant
Bit rate                                : 640 Kbps
Channel(s)                              : 6 channels
Channel positions                        : Front: L C R, Side: L R, LFE
Sampling rate                            : 48.0 KHz
Bit depth                                : 16 bits
Compression mode                        : Lossy
Stream size                              : 463 MiB (4%)
Title                                    : AC3 5.1
Language                                : English
Default                                  : No
Forced                                  : No
Audio #3
ID                                      : 4
Format                                  : DTS
Format/Info                              : Digital Theater Systems
Mode                                    : 16
Format settings, Endianness              : Big
Codec ID                                : A_DTS
Duration                                : 1h 41mn
Bit rate mode                            : Constant
Bit rate                                : 1 509 Kbps
Channel(s)                              : 6 channels
Channel positions                        : Front: L C R, Side: L R, LFE
Sampling rate                            : 48.0 KHz
Bit depth                                : 24 bits
Compression mode                        : Lossy
Stream size                              : 1.07 GiB (9%)
Title                                    : DTS 5.1
Language                                : English
Default                                  : No
Forced                                  : No
Text #1
ID                                      : 5
Format                                  : UTF-8
Codec ID                                : S_TEXT/UTF8
Codec ID/Info                            : UTF-8 Plain Text
Title                                    : Forzados
Language                                : Spanish
Default                                  : Yes
Forced                                  : No
Text #2
ID                                      : 6
Format                                  : UTF-8
Codec ID                                : S_TEXT/UTF8
Codec ID/Info                            : UTF-8 Plain Text
Language                                : Spanish
Default                                  : No
Forced                                  : No
Text #3
ID                                      : 7
Format                                  : UTF-8
Codec ID                                : S_TEXT/UTF8
Codec ID/Info                            : UTF-8 Plain Text
Language                                : English
Default                                  : No
Forced                                  : No






Código:

https://filejoker.net/bc5lswvgkiqg/wrerap3d.part01.rar
https://filejoker.net/3f0fnvc41pe4/wrerap3d.part02.rar
https://filejoker.net/cpjdltjonp2k/wrerap3d.part03.rar
https://filejoker.net/gwxkz6ls4bfm/wrerap3d.part04.rar
https://filejoker.net/5murzrrrfit6/wrerap3d.part05.rar
https://filejoker.net/v8y86xq5h5sb/wrerap3d.part06.rar
https://filejoker.net/0scq8it6v0gh/wrerap3d.part07.rar
https://filejoker.net/x3fpm2eutzkn/wrerap3d.part08.rar
https://filejoker.net/oay2wuu2x9wz/wrerap3d.part09.rar
https://filejoker.net/0rc823aqo3ra/wrerap3d.part10.rar
https://filejoker.net/3w2ldh8ohh4a/wrerap3d.part11.rar
https://filejoker.net/jw1azf94xy2o/wrerap3d.part12.rar
https://filejoker.net/671k28vk0obm/wrerap3d.part13.rar
https://filejoker.net/l6qft13t369r/wrerap3d.part14.rar
https://filejoker.net/8a08xvhvvgdf/wrerap3d.part15.rar
https://filejoker.net/zr3kvd35axdq/wrerap3d.part16.rar
https://filejoker.net/bsqjg94n25ix/wrerap3d.part17.rar
https://filejoker.net/1inn2crvwghy/wrerap3d.part18.rar
https://filejoker.net/i4q135gf1qct/wrerap3d.part19.rar
https://filejoker.net/zch3r2d64m76/wrerap3d.part20.rar
https://filejoker.net/6bxyj97kly0i/wrerap3d.part21.rar
https://filejoker.net/6az8h7ssremb/wrerap3d.part22.rar
https://filejoker.net/xhu647t65g7z/wrerap3d.part23.rar
https://filejoker.net/twvd17xfl0eq/wrerap3d.part24.rar
https://filejoker.net/txp0dzfdcego/wrerap3d.part25.rar
https://filejoker.net/hocfaamzi4qv/wrerap3d.part26.rar
https://filejoker.net/olhtptve2pfq/wrerap3d.part27.rar
https://filejoker.net/zlohkds13krb/wrerap3d.part28.rar
https://filejoker.net/dlmh6mp5ziiu/wrerap3d.part29.rar
https://filejoker.net/kzw7lf5ycncx/wrerap3d.part30.rar
https://filejoker.net/o1v661zr7zkn/wrerap3d.part31.rar
https://filejoker.net/8gx21mvopgb3/wrerap3d.part32.rar
https://filejoker.net/2r8ui1spa8me/wrerap3d.part33.rar
https://filejoker.net/qmpzpt3wdx78/wrerap3d.part34.rar
https://filejoker.net/ar2rxudnykzi/wrerap3d.part35.rar
https://filejoker.net/lh9bhprershl/wrerap3d.part36.rar
https://filejoker.net/yfhjoythlgyx/wrerap3d.part37.rar
https://filejoker.net/p7yoacsevves/wrerap3d.part38.rar
https://filejoker.net/mo0hckqpmeki/wrerap3d.part39.rar
https://filejoker.net/snkzm8la56fk/wrerap3d.part40.rar
https://filejoker.net/14bpvvf8wcv9/wrerap3d.part41.rar
https://filejoker.net/wj92g94l0xjg/wrerap3d.part42.rar
https://filejoker.net/qx9egp51rqeh/wrerap3d.part43.rar
https://filejoker.net/wluimyus0ghu/wrerap3d.part44.rar
https://filejoker.net/5i1ta0bgz4p1/wrerap3d.part45.rar
https://filejoker.net/sjymqcixj52e/wrerap3d.part46.rar
https://filejoker.net/do7fkz4rgo1j/wrerap3d.part47.rar
https://filejoker.net/swye8c4gjdvc/wrerap3d.part48.rar

pomposos

Mensajes : 1591
Fecha de inscripción : 24/10/2011

Ver perfil de usuario

Volver arriba Ir abajo

Ver el tema anterior Ver el tema siguiente Volver arriba

- Temas similares

 
Permisos de este foro:
No puedes responder a temas en este foro.