Buscar
 
 

Resultados por:
 


Rechercher Búsqueda avanzada

Palabras claves

Últimos temas
Julio 2017
LunMarMiérJueVieSábDom
     12
3456789
10111213141516
17181920212223
24252627282930
31      

Calendario Calendario

Compañeros

Crear foro



Compañeros

Crear foro




World War Z (2013) 3D H-SBS 1080p (Ing-Lat)

Ver el tema anterior Ver el tema siguiente Ir abajo

World War Z (2013) 3D H-SBS 1080p (Ing-Lat)

Mensaje  pomposos el Vie Mayo 26, 2017 7:25 pm




TITULO ORIGINAL: World War Z
ANO: 2013
DURACION: 116 min.
PAIS: USA
DIRECTOR: Marc Forster
GUION: J. Michael Straczynski, Matthew Michael Carnahan (Novela: Max Brooks)
REPARTO: Brad Pitt, Mireille Enos, Daniella Kertesz, David Morse, Matthew Fox, Eric West, James Badge Dale, David Andrews, Peter Capaldi, Ludi Boeken, Fana Mokoena, Abigail Hargrove, Elyes Gabel, Pierfrancesco Favino, Moritz Bleibtreu, Ruth Negga
PRODUCTORA: Paramount Pictures / Skydance Productions / GK Films / Plan B Entertainment / Apparatus Productions / Hemisphere Media Capital / Latina Pictures
GENERO: Accion. Thriller. Terror. Ciencia ficcion | Zombis. 3-D. Pandemias
[code]http://www.imdb.com/title/tt0816711/[code]
Sinopsis: Cuando el mundo comienza a ser invadido por una pandemia de muertos vivientes, el experto investigador de las Naciones Unidas Gerry Lane (Brad Pitt) intentara evitar lo que podria ser el fin de la civilizacion en una carrera contra el tiempo y el destino. La destruccion a la que se ve sometida la raza humana le hace recorrer el mundo entero buscando respuestas sobre como parar la horrible epidemia que amenaza a toda la humanidad, intentando salvar las vidas de millones de desconocidos asi como la de su propia familia.
Trailer
https://www.youtube.com/watch?v=xOwDwsjnH-Q&feature=youtu.be

[code]
General
Format : Matroska
Format version : Version 3 / Version 2
File size : 12.9 GiB
Duration : 1h 56mn
Overall bit rate : 15.9 Mbps
Encoded date : UTC 2013-09-09 22:25:19
Writing application : mkvmerge v5.7.0 (The Whirlwind) built on Jul 8 2012 20:08:51
Writing library : libebml v1.2.3 + libmatroska v1.3.0
Video
ID : 1
Format : AVC
Format/Info : Advanced Video Codec
Format profile : High@L4.1
MultiView_Count : 2
MultiView_Layout : Side by Side (left eye first)
Format settings, CABAC : Yes
Format settings, ReFrames : 4 frames
Codec ID : V_MPEG4/ISO/AVC
Duration : 1h 56mn
Bit rate : 13.4 Mbps
Width : 1 920 pixels
Height : 1 080 pixels
Display aspect ratio : 16:9
Frame rate mode : Constant
Frame rate : 23.976 fps
Color space : YUV
Chroma subsampling : 4:2:0
Bit depth : 8 bits
Scan type : Progressive
Bits/(Pixel*Frame) : 0.270
Stream size : 10.4 GiB (80%)
Writing library : x264 core 130 r2273 b3065e6
Language : English
Default : Yes
Forced : No
Audio #1
ID : 2
Format : AC-3
Format/Info : Audio Coding 3
Mode extension : CM (complete main)
Format settings, Endianness : Big
Codec ID : A_AC3
Duration : 1h 56mn
Bit rate mode : Constant
Bit rate : 640 Kbps
Channel(s) : 6 channels
Channel positions : Front: L C R, Side: L R, LFE
Sampling rate : 48.0 KHz
Bit depth : 16 bits
Compression mode : Lossy
Stream size : 531 MiB (4%)
Title : AC3 5.1
Language : Spanish
Default : Yes
Forced : No
Audio #2
ID : 3
Format : AC-3
Format/Info : Audio Coding 3
Mode extension : CM (complete main)
Format settings, Endianness : Big
Codec ID : A_AC3
Duration : 1h 56mn
Bit rate mode : Constant
Bit rate : 640 Kbps
Channel(s) : 6 channels
Channel positions : Front: L C R, Side: L R, LFE
Sampling rate : 48.0 KHz
Bit depth : 16 bits
Compression mode : Lossy
Stream size : 531 MiB (4%)
Title : AC3 5.1
Language : English
Default : No
Forced : No
Audio #3
ID : 4
Format : DTS
Format/Info : Digital Theater Systems
Mode : 16
Format settings, Endianness : Big
Codec ID : A_DTS
Duration : 1h 56mn
Bit rate mode : Constant
Bit rate : 1 509 Kbps
Channel(s) : 6 channels
Channel positions : Front: L C R, Side: L R, LFE
Sampling rate : 48.0 KHz
Bit depth : 24 bits
Compression mode : Lossy
Stream size : 1.22 GiB (10%)
Title : DTS 5.1
Language : English
Default : No
Forced : No
Text
ID : 5
Format : VobSub
Muxing mode : zlib
Codec ID : S_VOBSUB
Codec ID/Info : The same subtitle format used on DVDs
Language : Spanish
Default : No
Forced : No
[/code]








[code]
https://filejoker.net/0p94hkqe1c5j/wowazc3d.part01.rar
https://filejoker.net/25qp0hle4qon/wowazc3d.part02.rar
https://filejoker.net/0wmqgfgtod40/wowazc3d.part03.rar
https://filejoker.net/em6m26y1ovrx/wowazc3d.part04.rar
https://filejoker.net/k3ct88k7m92k/wowazc3d.part05.rar
https://filejoker.net/p08cmmcdvwml/wowazc3d.part06.rar
https://filejoker.net/wi7ywtbj7zx2/wowazc3d.part07.rar
https://filejoker.net/faw9jh1ozrt1/wowazc3d.part08.rar
https://filejoker.net/kcgfc0hg2ag1/wowazc3d.part09.rar
https://filejoker.net/l88xofxhmj14/wowazc3d.part10.rar
https://filejoker.net/gkgfxpwvxvj2/wowazc3d.part11.rar
https://filejoker.net/xl4b6fp57x7n/wowazc3d.part12.rar
https://filejoker.net/5qkrw97994p8/wowazc3d.part13.rar
https://filejoker.net/q70ufjdh5eqa/wowazc3d.part14.rar
https://filejoker.net/va3qh2g3wrtu/wowazc3d.part15.rar
https://filejoker.net/kg6spnzk5dso/wowazc3d.part16.rar
https://filejoker.net/ll7f15wor8vu/wowazc3d.part17.rar
https://filejoker.net/dktjang8vow7/wowazc3d.part18.rar
https://filejoker.net/wzd71vzqedt5/wowazc3d.part19.rar
https://filejoker.net/j6z84kt76gwc/wowazc3d.part20.rar
https://filejoker.net/no6lmujh7ord/wowazc3d.part21.rar
https://filejoker.net/o9lah9eb0i3z/wowazc3d.part22.rar
https://filejoker.net/7at90asqftkx/wowazc3d.part23.rar
https://filejoker.net/se0peniru6s9/wowazc3d.part24.rar
https://filejoker.net/sz1o3ae3yx3d/wowazc3d.part25.rar
https://filejoker.net/f86yb6omv7fp/wowazc3d.part26.rar
https://filejoker.net/ebw1dkg12wfp/wowazc3d.part27.rar
https://filejoker.net/qyx6k48jowhh/wowazc3d.part28.rar
https://filejoker.net/grg8xu4tv6jl/wowazc3d.part29.rar
https://filejoker.net/wsy51rle2a64/wowazc3d.part30.rar
https://filejoker.net/8pfgll9k7bob/wowazc3d.part31.rar
https://filejoker.net/xl5obsb0tbdy/wowazc3d.part32.rar
https://filejoker.net/ofmrttw7b43r/wowazc3d.part33.rar
https://filejoker.net/hdvjae7s4l3x/wowazc3d.part34.rar
https://filejoker.net/sfmiondwhgcc/wowazc3d.part35.rar
https://filejoker.net/qpetjig03c9l/wowazc3d.part36.rar
https://filejoker.net/skw7sp0txrro/wowazc3d.part37.rar
https://filejoker.net/4qd7ye8fhl22/wowazc3d.part38.rar
https://filejoker.net/d4lvu4mezjc1/wowazc3d.part39.rar
https://filejoker.net/vpi1d1n2itli/wowazc3d.part40.rar
https://filejoker.net/cc7rqyhwu6w5/wowazc3d.part41.rar
https://filejoker.net/lhk10p3613c9/wowazc3d.part42.rar
https://filejoker.net/ksdj43af4zqk/wowazc3d.part43.rar
https://filejoker.net/38cxafozixk2/wowazc3d.part44.rar
https://filejoker.net/a37enmbhcdme/wowazc3d.part45.rar
https://filejoker.net/nu8ezhx913mg/wowazc3d.part46.rar
https://filejoker.net/jncm4em14k6c/wowazc3d.part47.rar
https://filejoker.net/t9maw52sojmw/wowazc3d.part48.rar
https://filejoker.net/pxrdd2ro87xr/wowazc3d.part49.rar
https://filejoker.net/76hgif6g31lr/wowazc3d.part50.rar
https://filejoker.net/vzh5v5vxrqzn/wowazc3d.part51.rar
https://filejoker.net/k96w6rtm4v6r/wowazc3d.part52.rar
https://filejoker.net/yfz1wqjaunkb/wowazc3d.part53.rar
[/code]

pomposos

Mensajes : 679
Fecha de inscripción : 24/10/2011

Ver perfil de usuario

Volver arriba Ir abajo

Ver el tema anterior Ver el tema siguiente Volver arriba

- Temas similares

 
Permisos de este foro:
No puedes responder a temas en este foro.