Buscar
 
 

Resultados por:
 


Rechercher Búsqueda avanzada

Palabras claves

excel  

Últimos temas
Septiembre 2017
LunMarMiérJueVieSábDom
    123
45678910
11121314151617
18192021222324
252627282930 

Calendario Calendario

Compañeros

Crear foro



Compañeros

Crear foro




Walking with Dinosaurs (2013) 3D H-SBS 1080p (Ing-Lat)

Ver el tema anterior Ver el tema siguiente Ir abajo

Walking with Dinosaurs (2013) 3D H-SBS 1080p (Ing-Lat)

Mensaje  pomposos el Vie Mayo 26, 2017 7:16 pm




TITULO ORIGINAL: Walking with Dinosaurs (Walking with Dinosaurs 3D)
ANO: 2013
DURACION: 87 min.
PAIS: USA
DIRECTOR: Barry Cook, Neil Nightingale
GUION: John Collee, Theodore Thomas
REPARTO: Animation
PRODUCTORA: Coproduccion Reino Unido-EEUU-Austrlia; Animal Logic / BBC Earth / BBC Worldwide
GENERO: Animacion. Documental | Prehistoria. Dinosaurios. 3-D
Código:
http://www.imdb.com/title/tt1762399/
Sinopsis: "CAMINANDO ENTRE DINOSAURIOS" nos traslada hasta una Alaska prehistorica, donde conoceremos a Patch, un encantador y concienzudo dinosaurio, y a su familia. Patch es el pequeno de la camada, y nadie espera que vaya a llegar muy lejos. Pero Patch tiene un espiritu fuerte y un gran corazon; lo que le falta de fuerza fisica lo compensa con una gran tenacidad. Seguiremos a Patch y a su familia en su larga migracion anual para encontrar comida. Es un emocionante viaje, sembrado de peligros, en el que tambien encontraremos amigos y muchas aventuras.
Trailer
https://www.youtube.com/watch?v=23bUzcuOITU&feature=youtu.be

Código:

General
Format                                  : Matroska
Format version                          : Version 2
File size                                : 9.67 GiB
Duration                                : 1h 27mn
Overall bit rate                        : 15.8 Mbps
Encoded date                            : UTC 2014-03-23 16:59:13
Writing application                      : mkvmerge v5.7.0 ('The Whirlwind') built on Jul  8 2012 20:08:51
Writing library                          : libebml v1.2.3 + libmatroska v1.3.0
Video
ID                                      : 1
Format                                  : AVC
Format/Info                              : Advanced Video Codec
Format profile                          : High@L4.1
Format settings, CABAC                  : Yes
Format settings, ReFrames                : 4 frames
Muxing mode                              : Header stripping
Codec ID                                : V_MPEG4/ISO/AVC
Duration                                : 1h 27mn
Bit rate                                : 13.2 Mbps
Width                                    : 1 920 pixels
Height                                  : 1 080 pixels
Display aspect ratio                    : 16:9
Frame rate mode                          : Constant
Frame rate                              : 23.976 fps
Color space                              : YUV
Chroma subsampling                      : 4:2:0
Bit depth                                : 8 bits
Scan type                                : Progressive
Bits/(Pixel*Frame)                      : 0.266
Stream size                              : 7.88 GiB (82%)
Writing library                          : x264 core 140 r2377 1ca7bb9
Language                                : English
Default                                  : Yes
Forced                                  : No
Audio #1
ID                                      : 2
Format                                  : AC-3
Format/Info                              : Audio Coding 3
Mode extension                          : CM (complete main)
Format settings, Endianness              : Big
Muxing mode                              : Header stripping
Codec ID                                : A_AC3
Duration                                : 1h 27mn
Bit rate mode                            : Constant
Bit rate                                : 448 Kbps
Channel(s)                              : 6 channels
Channel positions                        : Front: L C R, Side: L R, LFE
Sampling rate                            : 48.0 KHz
Bit depth                                : 16 bits
Compression mode                        : Lossy
Delay relative to video                  : 8s 0ms
Stream size                              : 281 MiB (3%)
Title                                    : AC3 5.1
Language                                : Spanish
Default                                  : Yes
Forced                                  : No
Audio #2
ID                                      : 3
Format                                  : AC-3
Format/Info                              : Audio Coding 3
Mode extension                          : CM (complete main)
Format settings, Endianness              : Big
Muxing mode                              : Header stripping
Codec ID                                : A_AC3
Duration                                : 1h 27mn
Bit rate mode                            : Constant
Bit rate                                : 640 Kbps
Channel(s)                              : 6 channels
Channel positions                        : Front: L C R, Side: L R, LFE
Sampling rate                            : 48.0 KHz
Bit depth                                : 16 bits
Compression mode                        : Lossy
Stream size                              : 401 MiB (4%)
Title                                    : AC3 5.1
Language                                : English
Default                                  : No
Forced                                  : No
Audio #3
ID                                      : 4
Format                                  : DTS
Format/Info                              : Digital Theater Systems
Mode                                    : 16
Format settings, Endianness              : Big
Muxing mode                              : Header stripping
Codec ID                                : A_DTS
Duration                                : 1h 27mn
Bit rate mode                            : Constant
Bit rate                                : 1 509 Kbps
Channel(s)                              : 6 channels
Channel positions                        : Front: L C R, Side: L R, LFE
Sampling rate                            : 48.0 KHz
Bit depth                                : 24 bits
Compression mode                        : Lossy
Delay relative to video                  : 11ms
Stream size                              : 945 MiB (10%)
Title                                    : DTS 5.1
Language                                : English
Default                                  : No
Forced                                  : No
Text
ID                                      : 5
Format                                  : VobSub
Muxing mode                              : zlib
Codec ID                                : S_VOBSUB
Codec ID/Info                            : The same subtitle format used on DVDs
Language                                : Spanish
Default                                  : No
Forced                                  : No






Código:

https://filejoker.net/va3qqxv843gj/wadinof3d.part01.rar
https://filejoker.net/o5tg7fe0qp4y/wadinof3d.part02.rar
https://filejoker.net/vv4d5ozv2p96/wadinof3d.part03.rar
https://filejoker.net/hexh4asd75oi/wadinof3d.part04.rar
https://filejoker.net/fyegskb9lrx6/wadinof3d.part05.rar
https://filejoker.net/l9m8m2le5wgl/wadinof3d.part06.rar
https://filejoker.net/ogunanvmgiwm/wadinof3d.part07.rar
https://filejoker.net/59xvfmfi3s4z/wadinof3d.part08.rar
https://filejoker.net/tjspohwdd4wq/wadinof3d.part09.rar
https://filejoker.net/jbaqb4qluk36/wadinof3d.part10.rar
https://filejoker.net/27eqnte5q6bb/wadinof3d.part11.rar
https://filejoker.net/m6bcme172m80/wadinof3d.part12.rar
https://filejoker.net/znha2cvzdvhf/wadinof3d.part13.rar
https://filejoker.net/7lxvk400shl4/wadinof3d.part14.rar
https://filejoker.net/xl7d7hcb75ds/wadinof3d.part15.rar
https://filejoker.net/e9fpqturqtyy/wadinof3d.part16.rar
https://filejoker.net/u18uognuuqtw/wadinof3d.part17.rar
https://filejoker.net/sagzjhb1aeys/wadinof3d.part18.rar
https://filejoker.net/qf375xdltrtt/wadinof3d.part19.rar
https://filejoker.net/huoxi97zo8op/wadinof3d.part20.rar
https://filejoker.net/156nr9zv67mr/wadinof3d.part21.rar
https://filejoker.net/6t8qc43j149i/wadinof3d.part22.rar
https://filejoker.net/a1hpcccq4ebn/wadinof3d.part23.rar
https://filejoker.net/alblc93f9sya/wadinof3d.part24.rar
https://filejoker.net/eb32uaev1cfv/wadinof3d.part25.rar
https://filejoker.net/lhfbbtn7tar4/wadinof3d.part26.rar
https://filejoker.net/vvhmye8ms5qe/wadinof3d.part27.rar
https://filejoker.net/57s7iqzjbuk8/wadinof3d.part28.rar
https://filejoker.net/a9vao92rgrpz/wadinof3d.part29.rar
https://filejoker.net/iq1y5ecpmr4p/wadinof3d.part30.rar
https://filejoker.net/p1r1ztkvdlx5/wadinof3d.part31.rar
https://filejoker.net/mm1o4re2oyb2/wadinof3d.part32.rar
https://filejoker.net/8rplwdorq4bw/wadinof3d.part33.rar
https://filejoker.net/uk67qscbufjn/wadinof3d.part34.rar
https://filejoker.net/n6oranra54ar/wadinof3d.part35.rar
https://filejoker.net/iuv3664an07u/wadinof3d.part36.rar
https://filejoker.net/se2sjamcr7gg/wadinof3d.part37.rar
https://filejoker.net/984oz076b86d/wadinof3d.part38.rar
https://filejoker.net/claxc4w614jm/wadinof3d.part39.rar
https://filejoker.net/89n7vye3mani/wadinof3d.part40.rar

pomposos

Mensajes : 1591
Fecha de inscripción : 24/10/2011

Ver perfil de usuario

Volver arriba Ir abajo

Ver el tema anterior Ver el tema siguiente Volver arriba

- Temas similares

 
Permisos de este foro:
No puedes responder a temas en este foro.