Buscar
 
 

Resultados por:
 


Rechercher Búsqueda avanzada

Noviembre 2017
LunMarMiérJueVieSábDom
  12345
6789101112
13141516171819
20212223242526
27282930   

Calendario Calendario

Compañeros

Crear foro



Compañeros

Crear foro




The Silence of the Lambs (1991) FullHD 1080p (Ing-Lat)

Ver el tema anterior Ver el tema siguiente Ir abajo

The Silence of the Lambs (1991) FullHD 1080p (Ing-Lat)

Mensaje  pomposos el Vie Mayo 26, 2017 6:30 pm




Titulo original The Silence of the Lambs
Ano 1991
Duracion 115 min.
Pais Estados Unidos
Código:
http://www.imdb.com/title/tt0102926/?ref_=fn_al_tt_1
Director Jonathan Demme
Guion Ted Tally (Novela: Thomas Harris)
Musica Howard Shore
Fotografia Tak Fujimoto
Reparto Jodie Foster, Anthony Hopkins, Scott Glenn, Ted Levine, Anthony Heald, Diane Baker, Brooke Smith, Tracey Walter, Kasi Lemmons, Chris Isaak, Charles Napier, Roger Corman, Frankie Faison, Paul Lazar, Daniel von Bargen, Cynthia Ettinger
Productora Orion Pictures
Genero Thriller. Intriga | Crimen. Thriller psicologico. Policiaco. Pelicula de culto. Asesinos en serie. Secuestros / Desapariciones
Sinopsis El FBI busca a "Buffalo Bill", un asesino en serie que mata a sus victimas, todas adolescentes, despues de prepararlas minuciosamente y arrancarles la piel. Para poder atraparlo recurren a Clarice Starling, una brillante licenciada universitaria, experta en conductas psicopatas, que aspira a formar parte del FBI. Siguiendo las instrucciones de su jefe, Jack Crawford, Clarice visita la carcel de alta seguridad donde el gobierno mantiene encerrado a Hannibal Lecter, antiguo psicoanalista y asesino, dotado de una inteligencia superior a la normal. Su mision sera intentar sacarle informacion sobre los patrones de conducta de "Buffalo Bill".
https://www.youtube.com/watch?v=LWLBexKa72U

Código:

General
The Silence of the Lambs (1991) [FULL 1080p Dual]
Format : Matroska
Format version : Version 4 / Version 2
File size : 3.15 GiB
Duration : 1h 58mn
Overall bit rate : 3 807 Kbps
Movie name : The Silence of the Lambs (1991) [FULL 1080p Dual]
Encoded date : UTC 2014-01-31 15:05:32
Writing application : mkvmerge v6.0.0 (Coming Up For Air) built on Jan 20 2013 09:52:00
Writing library : libebml v1.3.0 + libmatroska v1.4.0
Video
ID : 1
Format : AVC
Format/Info : Advanced Video Codec
Format profile : High@L4.1
Format settings, CABAC : Yes
Format settings, ReFrames : 2 frames
Codec ID : V_MPEG4/ISO/AVC
Duration : 1h 58mn
Bit rate : 2 963 Kbps
Width : 1 920 pixels
Height : 1 080 pixels
Display aspect ratio : 16:9
Frame rate mode : Constant
Frame rate : 23.976 fps
Color space : YUV
Chroma subsampling : 4:2:0
Bit depth : 8 bits
Scan type : Progressive
Bits/(Pixel*Frame) : 0.060
Stream size : 2.45 GiB (78%)
Writing library : x264 core
Default : Yes
Forced : No
Color primaries : BT.709
Transfer characteristics : BT.709
Matrix coefficients : BT.709
Audio #1
ID : 2
Format : AC-3
Format/Info : Audio Coding 3
Mode extension : CM (complete main)
Format settings, Endianness : Big
Codec ID : A_AC3
Duration : 1h 58mn
Bit rate mode : Constant
Bit rate : 448 Kbps
Channel count : 6 channels
Channel positions : Front: L C R, Side: L R, LFE
Sampling rate : 48.0 KHz
Bit depth : 16 bits
Compression mode : Lossy
Stream size : 380 MiB (12%)
Title : Audio Latino
Default : Yes
Forced : No
Audio #2
ID : 3
Format : AC-3
Format/Info : Audio Coding 3
Mode extension : CM (complete main)
Format settings, Endianness : Big
Codec ID : A_AC3
Duration : 1h 58mn
Bit rate mode : Constant
Bit rate : 320 Kbps
Channel count : 6 channels
Channel positions : Front: L C R, Side: L R, LFE
Sampling rate : 44.1 KHz
Bit depth : 16 bits
Compression mode : Lossy
Stream size : 271 MiB (8%)
Title : Audio Ingles
Default : No
Forced : No
Text #1
ID : 4
Format : VobSub
Muxing mode : zlib
Codec ID : S_VOBSUB
Codec ID/Info : The same subtitle format used on DVDs
Title : Subtitulos Latino
Default : No
Forced : No
Text #2
ID : 5
Format : VobSub
Muxing mode : zlib
Codec ID : S_VOBSUB
Codec ID/Info : The same subtitle format used on DVDs
Title : Subtitulos Ingles
Default : No
Forced : No
Text #3
ID : 6
Format : UTF-8
Codec ID : S_TEXT/UTF8
Codec ID/Info : UTF-8 Plain Text
Default : Yes
Forced : No








Código:

https://filejoker.net/er8lafzhu69a/thslamb2f.part1.rar
https://filejoker.net/s5nhn2mx5o9c/thslamb2f.part2.rar
https://filejoker.net/0za2k7rculu0/thslamb2f.part3.rar
https://filejoker.net/awjb76e0q6lb/thslamb2f.part4.rar
https://filejoker.net/4a66qyoj2msb/thslamb2f.part5.rar
https://filejoker.net/ww2y2ebffni0/thslamb2f.part6.rar
https://filejoker.net/nxhyra7wpro9/thslamb2f.part7.rar

pomposos

Mensajes : 2212
Fecha de inscripción : 24/10/2011

Ver perfil de usuario

Volver arriba Ir abajo

Ver el tema anterior Ver el tema siguiente Volver arriba

- Temas similares

 
Permisos de este foro:
No puedes responder a temas en este foro.