Buscar
 
 

Resultados por:
 


Rechercher Búsqueda avanzada

Palabras claves

excel  

Últimos temas
Septiembre 2017
LunMarMiérJueVieSábDom
    123
45678910
11121314151617
18192021222324
252627282930 

Calendario Calendario

Compañeros

Crear foro



Compañeros

Crear foro




The Lion King III (2004)(FullHD 1080)(Ing-Lat)

Ver el tema anterior Ver el tema siguiente Ir abajo

The Lion King III (2004)(FullHD 1080)(Ing-Lat)

Mensaje  pomposos el Vie Mayo 26, 2017 6:12 pm



Código:
http://www.imdb.com/title/tt0318403/

Titulo original The Lion King 1½
Ano 2004
Duracion 83 min.
Pais Estados Unidos
Director Bradley Raymond
Guion Tom Rogers
Musica Don Harper
Fotografia Animation
Reparto Animation
Productora Walt Disney Pictures
Genero Animacion. Comedia. Infantil | Africa. Precuela. Animales
Sinopsis La diversion reina en esta nueva pelicula en al que Timon y su simpatico amigo Pumba son los grandes heroes de la Sabana. El Rey Leon 3 nos traslada al pasado, antes de que comenzase la historia de Simba, e incluso mucho mas atras. En esta nueva comedia de aventuras, Timon y Pumba te descubriran sus origenes, cuando se conocieron y como ayudaron a Simba a salvar el Seregeti. Su historia incluye algunos de los grandes momentos de El Rey Leon, que ahora resultaran un poco diferentes desde su punto de vista. Por ejemplo, os sorprendera conocer la verdad sobre como se desarrollo el trascendental momento en el que Simba fue presentado al reino animal.
https://www.youtube.com/watch?v=n5gakaIyNtw

Código:

Format : Matroska
Format version : Version 4 / Version 2
File size : 2.07 GiB
Duration : 1h 16mn
Overall bit rate : 3 889 Kbps
Movie name : El Rey Leon 3 (2004) [FULL 1080p Dual]
Encoded date : UTC 2013-12-18 22:00:35
Writing application : mkvmerge v6.0.0 ('Coming Up For Air') built on Jan 20 2013 09:52:00
Writing library : libebml v1.3.0 + libmatroska v1.4.0
Video
ID : 1
Format : AVC
Format/Info : Advanced Video Codec
Format profile : High@L4.1
Format settings, CABAC : Yes
Format settings, ReFrames : 2 frames
Codec ID : V_MPEG4/ISO/AVC
Duration : 1h 16mn
Bit rate : 2 916 Kbps
Width : 1 920 pixels
Height : 1 080 pixels
Display aspect ratio : 16:9
Frame rate mode : Constant
Frame rate : 23.976 fps
Color space : YUV
Chroma subsampling : 4:2:0
Bit depth : 8 bits
Scan type : Progressive
Bits/(Pixel*Frame) : 0.059
Stream size : 1.55 GiB (75%)
Writing library : x264 core
Default : Yes
Forced : No
Color primaries : BT.709
Transfer characteristics : BT.709
Matrix coefficients : BT.709
Audio #1
ID : 2
Format : AC-3
Format/Info : Audio Coding 3
Mode extension : CM (complete main)
Format settings, Endianness : Big
Codec ID : A_AC3
Duration : 1h 16mn
Bit rate mode : Constant
Bit rate : 448 Kbps
Channel count : 6 channels
Channel positions : Front: L C R, Side: L R, LFE
Sampling rate : 48.0 KHz
Bit depth : 16 bits
Compression mode : Lossy
Stream size : 244 MiB (12%)
Title : Audio Latino
Default : Yes
Forced : No
Audio #2
ID : 3
Format : AC-3
Format/Info : Audio Coding 3
Mode extension : CM (complete main)
Format settings, Endianness : Big
Codec ID : A_AC3
Duration : 1h 16mn
Bit rate mode : Constant
Bit rate : 448 Kbps
Channel count : 6 channels
Channel positions : Front: L C R, Side: L R, LFE
Sampling rate : 48.0 KHz
Bit depth : 16 bits
Compression mode : Lossy
Stream size : 244 MiB (12%)
Title : Audio Ingles
Default : No
Forced : No
Text #1
ID : 4
Format : VobSub
Muxing mode : zlib
Codec ID : S_VOBSUB
Codec ID/Info : The same subtitle format used on DVDs
Title : Subtitulos Latino
Default : No
Forced : No
Text #2
ID : 5
Format : VobSub
Muxing mode : zlib
Codec ID : S_VOBSUB
Codec ID/Info : The same subtitle format used on DVDs
Title : Subtitulos Ingles
Default : No
Forced : No
Text #3
ID : 6
Format : UTF-8
Codec ID : S_TEXT/UTF8
Codec ID/Info : UTF-8 Plain Text
Default : Yes
Forced : No








Código:

https://filejoker.net/y8i43sqy8dgk/lion3kiHds.part1.rar
https://filejoker.net/78oi7399foof/lion3kiHds.part2.rar
https://filejoker.net/n5n3exelpx14/lion3kiHds.part3.rar
https://filejoker.net/gcwv83xufr92/lion3kiHds.part4.rar
https://filejoker.net/licd1fsb8gxj/lion3kiHds.part5.rar

pomposos

Mensajes : 1591
Fecha de inscripción : 24/10/2011

Ver perfil de usuario

Volver arriba Ir abajo

Ver el tema anterior Ver el tema siguiente Volver arriba

- Temas similares

 
Permisos de este foro:
No puedes responder a temas en este foro.