Buscar
 
 

Resultados por:
 


Rechercher Búsqueda avanzada

Palabras claves

excel  

Septiembre 2017
LunMarMiérJueVieSábDom
    123
45678910
11121314151617
18192021222324
252627282930 

Calendario Calendario

Compañeros

Crear foro



Compañeros

Crear foro




The Great Gatsby (2013) 3D H-SBS 1080p (Ing-Lat)

Ver el tema anterior Ver el tema siguiente Ir abajo

The Great Gatsby (2013) 3D H-SBS 1080p (Ing-Lat)

Mensaje  pomposos el Vie Mayo 26, 2017 6:03 pm




TITULO ORIGINAL: The Great Gatsby
ANO: 2013
DURACION: 118 min.
PAIS: Australia
DIRECTOR: Baz Luhrmann
GUION: Baz Luhrmann, Craig Pearce (Novela: F. Scott Fitzgerald)
REPARTO: Leonardo DiCaprio, Tobey Maguire, Carey Mulligan, Joel Edgerton, Isla Fisher, Elizabeth Debicki, Amitabh Bachchan, Jason Clarke, Adelaide Clemens, Max Cullen, Steve Bisley, Richard Carter, Vince Colosimo, Brendan Maclean, Kate Mulvany, Callan McAuliffe, Jack Thompson
PRODUCTORA: Coproduccion Australia-EEUU; Warner Bros. Pictures / Bazmark Films / Red Wagon Productions
GENERO: Drama. Romance | Drama romantico. Anos 20. 3-D
Código:
http://www.imdb.com/title/tt1343092/
Sinopsis: Nueva York, anos 20. En la alta sociedad norteamericana, llama la atencion la presencia de Jay Gatsby, un hombre misterioso e inmensamente rico, al que todos consideran un advenedizo, lo que no impide que acudan a sus fastuosas fiestas en su gran mansion de Long Island. Gatsby vive obsesionado con la idea de recuperar al amor que dejo escapar anos atras. Para ello se hara amigo de su vecino recien llegado, el joven Nick Carraway.
Trailer
https://www.youtube.com/watch?v=nIewKn6EnAs&feature=youtu.be

Código:

General
Format                                  : Matroska
Format version                          : Version 3 / Version 2
File size                                : 13.5 GiB
Duration                                : 2h 22mn
Overall bit rate                        : 13.6 Mbps
Encoded date                            : UTC 2013-08-12 15:51:02
Writing application                      : mkvmerge v5.7.0 (The Whirlwind) built on Jul  8 2012 20:08:51
Writing library                          : libebml v1.2.3 + libmatroska v1.3.0
Video
ID                                      : 1
Format                                  : AVC
Format/Info                              : Advanced Video Codec
Format profile                          : High@L4.1
MultiView_Count                          : 2
MultiView_Layout                        : Side by Side (left eye first)
Format settings, CABAC                  : Yes
Format settings, ReFrames                : 4 frames
Codec ID                                : V_MPEG4/ISO/AVC
Duration                                : 2h 22mn
Bit rate                                : 10.7 Mbps
Nominal bit rate                        : 11.3 Mbps
Width                                    : 1 920 pixels
Height                                  : 1 080 pixels
Display aspect ratio                    : 16:9
Frame rate mode                          : Constant
Frame rate                              : 23.976 fps
Color space                              : YUV
Chroma subsampling                      : 4:2:0
Bit depth                                : 8 bits
Scan type                                : Progressive
Bits/(Pixel*Frame)                      : 0.215
Stream size                              : 10.6 GiB (79%)
Writing library                          : x264 core 130 r2273 b3065e6
Language                                : English
Default                                  : Yes
Forced                                  : No
Audio #1
ID                                      : 2
Format                                  : AC-3
Format/Info                              : Audio Coding 3
Mode extension                          : CM (complete main)
Format settings, Endianness              : Big
Codec ID                                : A_AC3
Duration                                : 2h 22mn
Bit rate mode                            : Constant
Bit rate                                : 448 Kbps
Channel(s)                              : 6 channels
Channel positions                        : Front: L C R, Side: L R, LFE
Sampling rate                            : 48.0 KHz
Bit depth                                : 16 bits
Compression mode                        : Lossy
Stream size                              : 455 MiB (3%)
Title                                    : AC3  5.1
Language                                : Spanish
Default                                  : Yes
Forced                                  : No
Audio #2
ID                                      : 3
Format                                  : AC-3
Format/Info                              : Audio Coding 3
Mode extension                          : CM (complete main)
Format settings, Endianness              : Big
Codec ID                                : A_AC3
Duration                                : 2h 22mn
Bit rate mode                            : Constant
Bit rate                                : 640 Kbps
Channel(s)                              : 6 channels
Channel positions                        : Front: L C R, Side: L R, LFE
Sampling rate                            : 48.0 KHz
Bit depth                                : 16 bits
Compression mode                        : Lossy
Stream size                              : 651 MiB (5%)
Title                                    : AC3  5.1
Language                                : English
Default                                  : No
Forced                                  : No
Audio #3
ID                                      : 4
Format                                  : DTS
Format/Info                              : Digital Theater Systems
Mode                                    : 16
Format settings, Endianness              : Big
Codec ID                                : A_DTS
Duration                                : 2h 22mn
Bit rate mode                            : Constant
Bit rate                                : 1 509 Kbps
Channel(s)                              : 6 channels
Channel positions                        : Front: L C R, Side: L R, LFE
Sampling rate                            : 48.0 KHz
Bit depth                                : 24 bits
Compression mode                        : Lossy
Delay relative to video                  : 11ms
Stream size                              : 1.50 GiB (11%)
Title                                    : DTS  5.1
Language                                : English
Default                                  : No
Forced                                  : No
Text #1
ID                                      : 5
Format                                  : UTF-8
Codec ID                                : S_TEXT/UTF8
Codec ID/Info                            : UTF-8 Plain Text
Language                                : Spanish
Default                                  : No
Forced                                  : No
Text #2
ID                                      : 6
Format                                  : VobSub
Muxing mode                              : zlib
Codec ID                                : S_VOBSUB
Codec ID/Info                            : The same subtitle format used on DVDs
Title                                    : 3D
Language                                : Spanish
Default                                  : No
Forced                                  : No








Código:

https://filejoker.net/gaqoqb8tpd34/thgrca3d.part01.rar
https://filejoker.net/7ozj0mq9aqg1/thgrca3d.part02.rar
https://filejoker.net/owobm50g14yy/thgrca3d.part03.rar
https://filejoker.net/50phvgtvzjqe/thgrca3d.part04.rar
https://filejoker.net/n4xrwfylidbs/thgrca3d.part05.rar
https://filejoker.net/2pgnq8ztmf5h/thgrca3d.part06.rar
https://filejoker.net/8207qzgdppvr/thgrca3d.part07.rar
https://filejoker.net/bi6grt5cu1vr/thgrca3d.part08.rar
https://filejoker.net/jar0u95zqqag/thgrca3d.part09.rar
https://filejoker.net/hpcojch0gauv/thgrca3d.part10.rar
https://filejoker.net/12enpmz9n01j/thgrca3d.part11.rar
https://filejoker.net/i83539s4eswj/thgrca3d.part12.rar
https://filejoker.net/bcl7hkcfvty0/thgrca3d.part13.rar
https://filejoker.net/aqg4okas8o19/thgrca3d.part14.rar
https://filejoker.net/fbmrxdkbeu3u/thgrca3d.part15.rar
https://filejoker.net/wwqshlmsi3hn/thgrca3d.part16.rar

pomposos

Mensajes : 1564
Fecha de inscripción : 24/10/2011

Ver perfil de usuario

Volver arriba Ir abajo

Ver el tema anterior Ver el tema siguiente Volver arriba

- Temas similares

 
Permisos de este foro:
No puedes responder a temas en este foro.