Buscar
 
 

Resultados por:
 


Rechercher Búsqueda avanzada

Noviembre 2017
LunMarMiérJueVieSábDom
  12345
6789101112
13141516171819
20212223242526
27282930   

Calendario Calendario

Compañeros

Crear foro



Compañeros

Crear foro




Teenage Mutant Ninja Turtles Out of the Shadows (2016) 3D H-SBS 1080p (Ing-Lat)

Ver el tema anterior Ver el tema siguiente Ir abajo

Teenage Mutant Ninja Turtles Out of the Shadows (2016) 3D H-SBS 1080p (Ing-Lat)

Mensaje  pomposos el Vie Mayo 26, 2017 5:36 pm




Titulo original: Teenage Mutant Ninja Turtles: Out of the Shadows
Ano: 2016
Duracion: 112 min.
Pais: Estados Unidos
Director: Dave Green
Reparto: Megan Fox, Will Arnett, Laura Linney, Tyler Perry, Alan Ritchson, Jeremy Howard, Pete Ploszek, Noel Fisher, Brian Tee, Tony Shalhoub, Stephen Amell, Brittany Ishibashi, Stephen Farrelly, Gary Anthony Williams
Productora: Paramount Pictures / Nickelodeon Movies
Genero: Ciencia ficcion. Accion | Superheroes. Comic. Ninjas. Secuela
Sinopsis: En esta ocasion Las Tortugas Ninja vuelven a salir de las sombras para proteger la ciudad de Nueva York del malvado Shredder y sus nuevos aliados. Secuela de "Ninja Turtles (Las Tortugas Ninja)" (2014).
Trailer
https://www.youtube.com/watch?v=HeaugHGd1Kw&feature=youtu.be

Código:

General
Format : Matroska
Format version : Version 4 / Version 2
File size : 16.3 GiB
Duration : 1h 52mn
Overall bit rate mode : Variable
Overall bit rate : 20.7 Mbps
Movie name : Teenage Mutant Ninja Turtles: Out of the Shadows (2016) 3D H-SBS 1080p
Encoded date : UTC 2016-09-11 02:29:27
Writing application : mkvmerge v7.1.0 (Good Love) 64bit built on Jul 27 2014 13:06:55
Writing library : libebml v1.3.0 + libmatroska v1.4.1
Video
ID : 1
Format : AVC
Format/Info : Advanced Video Codec
Format profile : High@L4.1
Format settings, CABAC : Yes
Format settings, ReFrames : 2 frames
Codec ID : V_MPEG4/ISO/AVC
Duration : 1h 52mn
Nominal bit rate : 15.5 Mbps
Width : 1 920 pixels
Height : 1 080 pixels
Display aspect ratio : 16:9
Frame rate mode : Constant
Frame rate : 23.976 fps
Color space : YUV
Chroma subsampling : 4:2:0
Bit depth : 8 bits
Scan type : Progressive
Bits/(Pixel*Frame) : 0.312
Title : Teenage Mutant Ninja Turtles: Out of the Shadows (2016) 3D H-SBS 1080ps
Language : English
Default : Yes
Forced : No
Audio #1
ID : 2
Format : AC-3
Format/Info : Audio Coding 3
Mode extension : CM (complete main)
Format settings, Endianness : Big
Codec ID : A_AC3
Duration : 1h 52mn
Bit rate mode : Constant
Bit rate : 640 Kbps
Channel(s) : 6 channels
Channel positions : Front: L C R, Side: L R, LFE
Sampling rate : 48.0 KHz
Bit depth : 16 bits
Compression mode : Lossy
Stream size : 513 MiB (3%)
Title : AC3 5.1 Bluray
Language : Spanish
Default : Yes
Forced : No
Audio #2
ID : 3
Format : DTS
Format/Info : Digital Theater Systems
Format profile : MA / Core
Mode : 16
Format settings, Endianness : Big
Codec ID : A_DTS
Duration : 1h 52mn
Bit rate mode : Variable
Bit rate : Unknown / 1 509 Kbps
Channel(s) : 8 channels / 6 channels
Channel positions : Front: L C R, Side: L R, Back: L R, LFE / Front: L C R, Side: L R, LFE
Sampling rate : 48.0 KHz
Bit depth : 24 bits
Compression mode : Lossless / Lossy
Title : DTS
Language : English
Default : No
Forced : No
Audio #3
ID : 4
Format : AC-3
Format/Info : Audio Coding 3
Mode extension : CM (complete main)
Format settings, Endianness : Big
Codec ID : A_AC3
Duration : 1h 52mn
Bit rate mode : Constant
Bit rate : 640 Kbps
Channel(s) : 6 channels
Channel positions : Front: L C R, Side: L R, LFE
Sampling rate : 48.0 KHz
Bit depth : 16 bits
Compression mode : Lossy
Stream size : 513 MiB (3%)
Title : AC3 5.1
Language : English
Default : No
Forced : No
Text #1
ID : 5
Format : UTF-8
Codec ID : S_TEXT/UTF8
Codec ID/Info : UTF-8 Plain Text
Title : Subt Forz
Language : Spanish
Default : Yes
Forced : No
Text #2
ID : 6
Format : UTF-8
Codec ID : S_TEXT/UTF8
Codec ID/Info : UTF-8 Plain Text
Title : Subt
Language : Spanish
Default : No
Forced : No








Código:

https://filejoker.net/fdfiufsorq8a/teemutni3d.part01.rar
https://filejoker.net/9vilq3bngfer/teemutni3d.part02.rar
https://filejoker.net/j8u2rpdpa4an/teemutni3d.part03.rar
https://filejoker.net/5zokv2bkrxj6/teemutni3d.part04.rar
https://filejoker.net/y6egqhqixdt5/teemutni3d.part05.rar
https://filejoker.net/pdwwpx50x0nl/teemutni3d.part06.rar
https://filejoker.net/krj8eh6gle4u/teemutni3d.part07.rar
https://filejoker.net/tfth2abydvmy/teemutni3d.part08.rar
https://filejoker.net/909bd83hqr53/teemutni3d.part09.rar
https://filejoker.net/7th1tpuzb69q/teemutni3d.part10.rar
https://filejoker.net/5fnynx27ihsy/teemutni3d.part11.rar
https://filejoker.net/hczvz5xdebbd/teemutni3d.part12.rar
https://filejoker.net/ex2f066cwicd/teemutni3d.part13.rar
https://filejoker.net/5jyyn4b32wbj/teemutni3d.part14.rar
https://filejoker.net/94voj3t7mkpd/teemutni3d.part15.rar
https://filejoker.net/qdje8rvh4y2a/teemutni3d.part16.rar
https://filejoker.net/1o0zppf8v9v3/teemutni3d.part17.rar
https://filejoker.net/rp2edmeg4l1v/teemutni3d.part18.rar
https://filejoker.net/slu6w22xbb3z/teemutni3d.part19.rar
https://filejoker.net/k6nl8clf7n21/teemutni3d.part20.rar
https://filejoker.net/d40wjtjq6v28/teemutni3d.part21.rar
https://filejoker.net/x95don5d5k0d/teemutni3d.part22.rar
https://filejoker.net/070shfu1quyv/teemutni3d.part23.rar
https://filejoker.net/sbbn2c1c4vpp/teemutni3d.part24.rar
https://filejoker.net/t5yzvi1rd9x8/teemutni3d.part25.rar
https://filejoker.net/hskjbu05pvgf/teemutni3d.part26.rar
https://filejoker.net/g72wtxmvriee/teemutni3d.part27.rar
https://filejoker.net/n1j5lnrs5he8/teemutni3d.part28.rar
https://filejoker.net/q8zo34bz58rw/teemutni3d.part29.rar
https://filejoker.net/m12ovasr59yq/teemutni3d.part30.rar
https://filejoker.net/66uudpv93xue/teemutni3d.part31.rar
https://filejoker.net/r8j50z6k1995/teemutni3d.part32.rar
https://filejoker.net/1zdx70x89o18/teemutni3d.part33.rar
https://filejoker.net/ajduxbo5ha9c/teemutni3d.part34.rar
https://filejoker.net/bvbdhlwug6ed/teemutni3d.part35.rar
https://filejoker.net/9ie5kf4p8cr5/teemutni3d.part36.rar
https://filejoker.net/na8g3iu5ldkb/teemutni3d.part37.rar
https://filejoker.net/mwj0oko5gzxq/teemutni3d.part38.rar
https://filejoker.net/tewvt1pfqa2x/teemutni3d.part39.rar
https://filejoker.net/xvg3v13khphk/teemutni3d.part40.rar
https://filejoker.net/zy2a4tyvsyoi/teemutni3d.part41.rar
https://filejoker.net/ekej2or5kjeo/teemutni3d.part42.rar
https://filejoker.net/lic1up97qxov/teemutni3d.part43.rar
https://filejoker.net/hagbp816k4fy/teemutni3d.part44.rar
https://filejoker.net/dwlp2370og40/teemutni3d.part45.rar
https://filejoker.net/7jjw0a59u53c/teemutni3d.part46.rar
https://filejoker.net/v21mup9j308h/teemutni3d.part47.rar
https://filejoker.net/9ldmnzrrja68/teemutni3d.part48.rar
https://filejoker.net/glr38988k77z/teemutni3d.part49.rar
https://filejoker.net/b765gxvzfsiv/teemutni3d.part50.rar
https://filejoker.net/pdl4sm45fc9k/teemutni3d.part51.rar
https://filejoker.net/4fd2v10g1u10/teemutni3d.part52.rar
https://filejoker.net/zzoxut30rclk/teemutni3d.part53.rar
https://filejoker.net/48hibwovie3f/teemutni3d.part54.rar
https://filejoker.net/f03pyv63s5c3/teemutni3d.part55.rar
https://filejoker.net/f6bdpze74d04/teemutni3d.part56.rar
https://filejoker.net/dbegw2lvs5x1/teemutni3d.part57.rar
https://filejoker.net/8oghuk5lj12w/teemutni3d.part58.rar
https://filejoker.net/juriwmf2vvlx/teemutni3d.part59.rar
https://filejoker.net/awzps623hw4q/teemutni3d.part60.rar
https://filejoker.net/iupl91rfr6o8/teemutni3d.part61.rar
https://filejoker.net/ex7f43vl4h4e/teemutni3d.part62.rar
https://filejoker.net/2xgwl1ve7een/teemutni3d.part63.rar
https://filejoker.net/fjiwaxlhy6k1/teemutni3d.part64.rar
https://filejoker.net/tz5w88giijvn/teemutni3d.part65.rar
https://filejoker.net/76qp1yiy6k3o/teemutni3d.part66.rar

pomposos

Mensajes : 2212
Fecha de inscripción : 24/10/2011

Ver perfil de usuario

Volver arriba Ir abajo

Ver el tema anterior Ver el tema siguiente Volver arriba


 
Permisos de este foro:
No puedes responder a temas en este foro.