Buscar
 
 

Resultados por:
 


Rechercher Búsqueda avanzada

Noviembre 2017
LunMarMiérJueVieSábDom
  12345
6789101112
13141516171819
20212223242526
27282930   

Calendario Calendario

Compañeros

Crear foro



Compañeros

Crear foro




Teenage Mutant Ninja Turtles (2014) 3D H-SBS 1080p (Ing-Lat)

Ver el tema anterior Ver el tema siguiente Ir abajo

Teenage Mutant Ninja Turtles (2014) 3D H-SBS 1080p (Ing-Lat)

Mensaje  pomposos el Vie Mayo 26, 2017 5:27 pm




Titulo original: Teenage Mutant Ninja Turtles
Ano: 2014
Duracion: 101 min.
Pais: Estados Unidos
Director: Jonathan Liebesman
Guion: Josh Applebaum, Andre Nemec, Evan Daugherty (Personajes: Peter Laird, Kevin Eastman)
Musica: Brian Tyler
Fotografia: Lula Carvalho
Reparto: Megan Fox, Alan Ritchson, Jeremy Howard, Pete Ploszek, Noel Fisher, Will Arnett, Danny Woodburn, William Fichtner, Whoopi Goldberg, Jeremy Howard, Pete Ploszek, Minae Noji, K. Todd Freeman, Malina Weissman
Productora: Paramount Pictures / Nickelodeon Movies; Productor: Michael Bay
Genero: Ciencia ficcion | Superheroes. Comic. Ninjas. 3-D
Sinopsis: Nueva York esta en peligro debido a que Shredder y su compinche El Clan del Pie dominan la ciudad y ejercen un ferreo control sobre todo, incluyendo policia y politicos. Pero cuatro heroes (Leonardo, Michelangelo, Donatello y Raphael) saldran de las alcantarillas y con la ayuda de la reportera April y su companero Vern Fenwick intentaran salvar la ciudad. Narra de nuevo el origen de estos personajes del comic, que en este filme seran alienigenas.
Trailer
https://www.youtube.com/watch?v=7hm9yup-gJs

Código:

General
Format : Matroska
Format version : Version 4 / Version 2
File size : 12.5 GiB
Duration : 1h 41mn
Overall bit rate : 17.6 Mbps
Encoded date : UTC 2014-11-28 02:14:23
Writing application : mkvmerge v7.1.0 (Good Love) 64bit built on Jul 27 2014 13:06:55
Writing library : libebml v1.3.0 + libmatroska v1.4.1
DURATION : 01:34:53.120000000
NUMBER_OF_FRAMES : 2252
NUMBER_OF_BYTES : 172476
Video
ID : 1
Format : AVC
Format/Info : Advanced Video Codec
Format profile : High@L4.1
Format settings, CABAC : Yes
Format settings, ReFrames : 4 frames
Codec ID : V_MPEG4/ISO/AVC
Duration : 1h 41mn
Bit rate : 14.5 Mbps
Width : 1 920 pixels
Height : 1 080 pixels
Display aspect ratio : 16:9
Frame rate mode : Constant
Frame rate : 23.976 fps
Color space : YUV
Chroma subsampling : 4:2:0
Bit depth : 8 bits
Scan type : Progressive
Bits/(Pixel*Frame) : 0.291
Stream size : 10.2 GiB (82%)
Writing library : x264 core 133 r2334kMod a3ac64b
Language : English
Default : Yes
Forced : No
DURATION : 01:41:20.992000000
NUMBER_OF_FRAMES : 145798
NUMBER_OF_BYTES : 11250572582
Audio #1
ID : 2
Format : AC-3
Format/Info : Audio Coding 3
Mode extension : CM (complete main)
Format settings, Endianness : Big
Codec ID : A_AC3
Duration : 1h 41mn
Bit rate mode : Constant
Bit rate : 640 Kbps
Channel(s) : 6 channels
Channel positions : Front: L C R, Side: L R, LFE
Sampling rate : 48.0 KHz
Bit depth : 16 bits
Compression mode : Lossy
Stream size : 464 MiB (4%)
Title : AC3 5.1 [BluRay]
Language : Spanish
Default : Yes
Forced : No
Audio #2
ID : 3
Format : AC-3
Format/Info : Audio Coding 3
Mode extension : CM (complete main)
Format settings, Endianness : Big
Codec ID : A_AC3
Duration : 1h 41mn
Bit rate mode : Constant
Bit rate : 640 Kbps
Channel(s) : 6 channels
Channel positions : Front: L C R, Side: L R, LFE
Sampling rate : 48.0 KHz
Bit depth : 16 bits
Compression mode : Lossy
Stream size : 464 MiB (4%)
Title : AC3 5.1
Language : English
Default : No
Forced : No
Audio #3
ID : 4
Format : DTS
Format/Info : Digital Theater Systems
Mode : 16
Format settings, Endianness : Big
Codec ID : A_DTS
Duration : 1h 41mn
Bit rate mode : Constant
Bit rate : 1 510 Kbps
Channel(s) : 6 channels
Channel positions : Front: L C R, Side: L R, LFE
Sampling rate : 48.0 KHz
Bit depth : 24 bits
Compression mode : Lossy
Stream size : 1.07 GiB (9%)
Title : DTS 5.1
Language : English
Default : No
Forced : No
Text
ID : 5
Format : ASS
Codec ID : S_TEXT/ASS
Codec ID/Info : Advanced Sub Station Alpha
Compression mode : Lossless
Language : Spanish
Default : No
Forced : No






Código:

https://filejoker.net/93mvidf7mwlw/tmunih3d.part01.rar
https://filejoker.net/tavuhrjk03js/tmunih3d.part02.rar
https://filejoker.net/ol1ancodal1r/tmunih3d.part03.rar
https://filejoker.net/426sh6hh6fjr/tmunih3d.part04.rar
https://filejoker.net/i9vk2sfmr3fz/tmunih3d.part05.rar
https://filejoker.net/3umuszu6qc29/tmunih3d.part06.rar
https://filejoker.net/jlowptvrxrfh/tmunih3d.part07.rar
https://filejoker.net/xf3ne8gv687a/tmunih3d.part08.rar
https://filejoker.net/6qaf8icd6hzj/tmunih3d.part09.rar
https://filejoker.net/ftelpzls6kip/tmunih3d.part10.rar
https://filejoker.net/djdi9l24ico6/tmunih3d.part11.rar
https://filejoker.net/u56yzmn4wz2l/tmunih3d.part12.rar
https://filejoker.net/550zk7yye03n/tmunih3d.part13.rar
https://filejoker.net/rsx8eojj4u2k/tmunih3d.part14.rar
https://filejoker.net/ess7a9qn5xa6/tmunih3d.part15.rar
https://filejoker.net/ecrort1wtly9/tmunih3d.part16.rar
https://filejoker.net/qwg2bdh4ajna/tmunih3d.part17.rar
https://filejoker.net/g4b9tcjc1kzw/tmunih3d.part18.rar
https://filejoker.net/vzz2dtcb64hs/tmunih3d.part19.rar
https://filejoker.net/8mv28va1b5jr/tmunih3d.part20.rar
https://filejoker.net/0scklfqx91hc/tmunih3d.part21.rar
https://filejoker.net/fqjj1iwfxgwe/tmunih3d.part22.rar
https://filejoker.net/tyzgbg9jtakl/tmunih3d.part23.rar
https://filejoker.net/21jifbv7fnv4/tmunih3d.part24.rar
https://filejoker.net/kswwsfdw3d2j/tmunih3d.part25.rar
https://filejoker.net/nw5bwt1fdfjn/tmunih3d.part26.rar
https://filejoker.net/8r2syl49n7nx/tmunih3d.part27.rar
https://filejoker.net/m41xz5lw41v9/tmunih3d.part28.rar
https://filejoker.net/tuf15os383a0/tmunih3d.part29.rar
https://filejoker.net/vyks45bvs54j/tmunih3d.part30.rar
https://filejoker.net/yrglsf6awbx4/tmunih3d.part31.rar
https://filejoker.net/og0gr7bpvbal/tmunih3d.part32.rar
https://filejoker.net/2n1asqmogk67/tmunih3d.part33.rar
https://filejoker.net/mna139vawj9u/tmunih3d.part34.rar
https://filejoker.net/2eqfz9jp99zc/tmunih3d.part35.rar
https://filejoker.net/jd456klt59f7/tmunih3d.part36.rar
https://filejoker.net/7vzs9mtcw394/tmunih3d.part37.rar
https://filejoker.net/7dn5n83n5u6c/tmunih3d.part38.rar
https://filejoker.net/q3jm8ol576fl/tmunih3d.part39.rar
https://filejoker.net/f61s13vhfrhr/tmunih3d.part40.rar
https://filejoker.net/jmwfrn4pcz2j/tmunih3d.part41.rar
https://filejoker.net/u68xffj2n7js/tmunih3d.part42.rar
https://filejoker.net/41kl6je3ybtk/tmunih3d.part43.rar
https://filejoker.net/dfdwsg41uo4j/tmunih3d.part44.rar
https://filejoker.net/4z6hcrulvmuq/tmunih3d.part45.rar
https://filejoker.net/pj2t7o0an0qh/tmunih3d.part46.rar
https://filejoker.net/y4cq2fvyyl6q/tmunih3d.part47.rar
https://filejoker.net/vsbfi2095zfe/tmunih3d.part48.rar
https://filejoker.net/c06poc91gxjl/tmunih3d.part49.rar
https://filejoker.net/pj1a0bhwltzg/tmunih3d.part50.rar
https://filejoker.net/6g9d2uogjiho/tmunih3d.part51.rar

pomposos

Mensajes : 2212
Fecha de inscripción : 24/10/2011

Ver perfil de usuario

Volver arriba Ir abajo

Ver el tema anterior Ver el tema siguiente Volver arriba

- Temas similares

 
Permisos de este foro:
No puedes responder a temas en este foro.