Buscar
 
 

Resultados por:
 


Rechercher Búsqueda avanzada

Últimos temas
» Novedades eBooks [23 11 2017][Multiformatos]
Ayer a las 5:32 am por nueve93

» Whore wife gets bbc creampie
Ayer a las 5:09 am por nueve93

» Incredible latina wife creampied by husbands best friend
Ayer a las 5:01 am por nueve93

» HORNY MILF CRAVE MASSIVE CREAPIE
Ayer a las 4:54 am por nueve93

» THE SEXIEST MILF BLOWJOB EVER
Ayer a las 4:45 am por nueve93

» JUST CUM INSIDE HER PUSSY - WHO IS THAT GIRL
Ayer a las 4:37 am por nueve93

» Pink satin pantyjob session
Ayer a las 4:29 am por nueve93

» Jerk off inside my blue marine pantyhose
Ayer a las 4:21 am por nueve93

» Park handjob
Ayer a las 4:12 am por nueve93

Noviembre 2017
LunMarMiérJueVieSábDom
  12345
6789101112
13141516171819
20212223242526
27282930   

Calendario Calendario

Compañeros

Crear foro



Compañeros

Crear foro




Sammys Great Escape (2012) 3D H-SBS 1080p (Ing-Lat)

Ver el tema anterior Ver el tema siguiente Ir abajo

Sammys Great Escape (2012) 3D H-SBS 1080p (Ing-Lat)

Mensaje  pomposos el Vie Mayo 26, 2017 5:08 pm




TITULO ORIGINAL: Sammy's avonturen 2 (Sammy's Great Escape 3D)
ANO: 2012
DURACION: 92 min.
PAIS: Belgica
DIRECTOR: Ben Stassen
GUION: Domonic Paris
REPARTO: Animation
PRODUCTORA: Illuminata Pictures / Motion Investment Group / nWave Pictures
GENERO: Animacion. Aventuras. Infantil | Aventuras marinas. 3-D. Secuela
Código:
http://www.imdb.com/title/tt2288005/
Sinopsis: Sammy y su mejor amigo, Ray, estan listos para pasar el testigo a la siguiente generacion, encarnada en los recien nacidos Ricky y Ella. Apenas empiezan a dar sus primeros aleteos en el gran oceano, unos pescadores furtivos capturan a Sammy y Ray, y los envian a un acuario en Dubai. Sin perder un instante, ambos organizan una especie de ejercito y elaboran un plan de fuga. Al otro lado de la barrera, Ricky y Ella preparan otro plan para salvar a sus padres..
Trailer
https://www.youtube.com/watch?v=zbb_SHYR--I&feature=youtu.be

Código:

General
Format                                  : Matroska
Format version                          : Version 2
File size                                : 8.33 GiB
Duration                                : 1h 31mn
Overall bit rate                        : 13.0 Mbps
Encoded date                            : UTC 2013-01-13 22:11:05
Writing application                      : mkvmerge v5.7.0 ('The Whirlwind') built on Jul  8 2012 20:08:51
Writing library                          : libebml v1.2.3 + libmatroska v1.3.0
Video
ID                                      : 1
Format                                  : AVC
Format/Info                              : Advanced Video Codec
Format profile                          : High@L4.1
Format settings, CABAC                  : Yes
Format settings, ReFrames                : 3 frames
Codec ID                                : V_MPEG4/ISO/AVC
Duration                                : 1h 31mn
Bit rate                                : 9 982 Kbps
Width                                    : 1 920 pixels
Height                                  : 1 036 pixels
Display aspect ratio                    : 1.85:1
Frame rate mode                          : Constant
Frame rate                              : 23.976 fps
Color space                              : YUV
Chroma subsampling                      : 4:2:0
Bit depth                                : 8 bits
Scan type                                : Progressive
Bits/(Pixel*Frame)                      : 0.209
Stream size                              : 6.38 GiB (77%)
Writing library                          : x264 core
Language                                : English
Default                                  : Yes
Forced                                  : No
Color primaries                          : BT.709
Transfer characteristics                : BT.709
Matrix coefficients                      : BT.709
Audio #1
ID                                      : 2
Format                                  : AC-3
Format/Info                              : Audio Coding 3
Mode extension                          : CM (complete main)
Format settings, Endianness              : Big
Codec ID                                : A_AC3
Duration                                : 1h 31mn
Bit rate mode                            : Constant
Bit rate                                : 640 Kbps
Channel(s)                              : 6 channels
Channel positions                        : Front: L C R, Side: L R, LFE
Sampling rate                            : 48.0 KHz
Bit depth                                : 16 bits
Compression mode                        : Lossy
Stream size                              : 419 MiB (5%)
Title                                    : AC3 5.1
Language                                : Spanish
Default                                  : Yes
Forced                                  : No
Audio #2
ID                                      : 3
Format                                  : AC-3
Format/Info                              : Audio Coding 3
Mode extension                          : CM (complete main)
Format settings, Endianness              : Big
Codec ID                                : A_AC3
Duration                                : 1h 31mn
Bit rate mode                            : Constant
Bit rate                                : 640 Kbps
Channel(s)                              : 6 channels
Channel positions                        : Front: L C R, Side: L R, LFE
Sampling rate                            : 48.0 KHz
Bit depth                                : 16 bits
Compression mode                        : Lossy
Stream size                              : 419 MiB (5%)
Title                                    : AC3 5.1
Language                                : English
Default                                  : No
Forced                                  : No
Audio #3
ID                                      : 4
Format                                  : DTS
Format/Info                              : Digital Theater Systems
Mode                                    : 16
Format settings, Endianness              : Big
Codec ID                                : A_DTS
Duration                                : 1h 31mn
Bit rate mode                            : Constant
Bit rate                                : 1 509 Kbps
Channel(s)                              : 6 channels
Channel positions                        : Front: L C R, Side: L R, LFE
Sampling rate                            : 48.0 KHz
Bit depth                                : 24 bits
Compression mode                        : Lossy
Stream size                              : 988 MiB (12%)
Title                                    : DTS 5.1
Language                                : English
Default                                  : No
Forced                                  : No
Text #1
ID                                      : 5
Format                                  : UTF-8
Codec ID                                : S_TEXT/UTF8
Codec ID/Info                            : UTF-8 Plain Text
Language                                : Spanish
Default                                  : Yes
Forced                                  : No
Text #2
ID                                      : 6
Format                                  : UTF-8
Codec ID                                : S_TEXT/UTF8
Codec ID/Info                            : UTF-8 Plain Text
Language                                : Spanish
Default                                  : No
Forced                                  : No
Text #3
ID                                      : 7
Format                                  : UTF-8
Codec ID                                : S_TEXT/UTF8
Codec ID/Info                            : UTF-8 Plain Text
Language                                : English
Default                                  : No
Forced                                  : No








Código:

https://filejoker.net/8kflzkbz1uil/samavnb2f3d.part01.rar
https://filejoker.net/oab8vs3yyrig/samavnb2f3d.part02.rar
https://filejoker.net/f1b6pk0tqrco/samavnb2f3d.part03.rar
https://filejoker.net/2k3w4tecug38/samavnb2f3d.part04.rar
https://filejoker.net/gu6c0xu5jfar/samavnb2f3d.part05.rar
https://filejoker.net/lsggvqoawq6g/samavnb2f3d.part06.rar
https://filejoker.net/l2wm87khawky/samavnb2f3d.part07.rar
https://filejoker.net/w5e92a620p73/samavnb2f3d.part08.rar
https://filejoker.net/0jqbss1dswlk/samavnb2f3d.part09.rar
https://filejoker.net/gdalfnh6hujn/samavnb2f3d.part10.rar
https://filejoker.net/ishcramq0xo0/samavnb2f3d.part11.rar
https://filejoker.net/7sn62wcqqtek/samavnb2f3d.part12.rar
https://filejoker.net/4d6fht97log2/samavnb2f3d.part13.rar
https://filejoker.net/5d769qe5cy7f/samavnb2f3d.part14.rar
https://filejoker.net/izni4fxwtd7x/samavnb2f3d.part15.rar
https://filejoker.net/eudxvhr6b18k/samavnb2f3d.part16.rar
https://filejoker.net/s3d3v5ounyza/samavnb2f3d.part17.rar
https://filejoker.net/awfncumvg65m/samavnb2f3d.part18.rar
https://filejoker.net/pz4gkh8kqwfa/samavnb2f3d.part19.rar
https://filejoker.net/ha3f65rs8r0o/samavnb2f3d.part20.rar
https://filejoker.net/dlv4k8167ql3/samavnb2f3d.part21.rar
https://filejoker.net/nkbp2q1c9sly/samavnb2f3d.part22.rar
https://filejoker.net/nk3rhwxxsc7v/samavnb2f3d.part23.rar
https://filejoker.net/vf6esmo7b6ub/samavnb2f3d.part24.rar
https://filejoker.net/k30zl3xmech9/samavnb2f3d.part25.rar
https://filejoker.net/gkfgh1g9i2y6/samavnb2f3d.part26.rar
https://filejoker.net/x7gif4fg33a9/samavnb2f3d.part27.rar
https://filejoker.net/ic2e6g6yc162/samavnb2f3d.part28.rar
https://filejoker.net/d9lkr2uipm8g/samavnb2f3d.part29.rar
https://filejoker.net/f12e53jrpz5r/samavnb2f3d.part30.rar
https://filejoker.net/pbevi65195st/samavnb2f3d.part31.rar

pomposos

Mensajes : 2212
Fecha de inscripción : 24/10/2011

Ver perfil de usuario

Volver arriba Ir abajo

Ver el tema anterior Ver el tema siguiente Volver arriba

- Temas similares

 
Permisos de este foro:
No puedes responder a temas en este foro.