Buscar
 
 

Resultados por:
 


Rechercher Búsqueda avanzada

Palabras claves

excel  

Septiembre 2017
LunMarMiérJueVieSábDom
    123
45678910
11121314151617
18192021222324
252627282930 

Calendario Calendario

Compañeros

Crear foro



Compañeros

Crear foro




Planes (2013) 3D H-SBS 1080p (Ing-Lat)

Ver el tema anterior Ver el tema siguiente Ir abajo

Planes (2013) 3D H-SBS 1080p (Ing-Lat)

Mensaje  pomposos el Vie Mayo 26, 2017 4:32 pm




TITULO ORIGINAL: Disneys Planes
ANO: 2013
DURACION: 92 min.
PAIS: USA
DIRECTOR: Klay Hall
GUION: Jeffrey M. Howard (Historia: John Lasseter, Klay Hall, Jeffrey M. Howard)
REPARTO: Animation
PRODUCTORA: DisneyToon Studios / Prana Animation Studios
GENERO: Animacion. Comedia. Aventuras. Infantil | Aviones. Spin-off. 3-D
Sinopsis: Dusty es un avion que suena con participar en una competicion aerea de altos vuelos. Pero Dusty no fue precisamente construido para competir y resulta que... �tiene miedo a las alturas! Asi que, recurre a un experimentado aviador naval que le ayuda a clasificarse para retar al vigente campeon del circuito de carreras. Dusty demostrara su valor para alcanzar alturas inimaginables y ensenara al mundo lo que hay que hacer para levantar el vuelo. Spin-off de Cars, protagonizado por vehiculos aereos, aunque la productora Pixar no es la responsable del film.
Código:
http://www.imdb.com/title/tt1691917/
Trailer
https://www.youtube.com/watch?v=hD9CcgmviTQ

Código:

General
Format                                  : Matroska
Format version                          : Version 2
File size                                : 8.29 GiB
Duration                                : 1h 31mn
Overall bit rate                        : 13.0 Mbps
Encoded date                            : UTC 2013-11-09 13:59:55
Writing application                      : mkvmerge v5.7.0 (The Whirlwind) built on Jul  8 2012 20:08:51
Writing library                          : libebml v1.2.3 + libmatroska v1.3.0
Video
ID                                      : 1
Format                                  : AVC
Format/Info                              : Advanced Video Codec
Format profile                          : High@L4.1
Format settings, CABAC                  : Yes
Format settings, ReFrames                : 2 frames
Format settings, GOP                    : M=3, N=24
Codec ID                                : V_MPEG4/ISO/AVC
Duration                                : 1h 31mn
Bit rate                                : 9 917 Kbps
Width                                    : 1 920 pixels
Height                                  : 1 080 pixels
Display aspect ratio                    : 16:9
Frame rate mode                          : Constant
Frame rate                              : 23.976 fps
Color space                              : YUV
Chroma subsampling                      : 4:2:0
Bit depth                                : 8 bits
Scan type                                : Progressive
Bits/(Pixel*Frame)                      : 0.199
Stream size                              : 6.34 GiB (76%)
Writing library                          : x264 core
Language                                : English
Default                                  : Yes
Forced                                  : No
Color primaries                          : BT.709
Transfer characteristics                : BT.709
Matrix coefficients                      : BT.709
Audio #1
ID                                      : 2
Format                                  : AC-3
Format/Info                              : Audio Coding 3
Mode extension                          : CM (complete main)
Format settings, Endianness              : Big
Codec ID                                : A_AC3
Duration                                : 1h 31mn
Bit rate mode                            : Constant
Bit rate                                : 640 Kbps
Channel(s)                              : 6 channels
Channel positions                        : Front: L C R, Side: L R, LFE
Sampling rate                            : 48.0 KHz
Bit depth                                : 16 bits
Compression mode                        : Lossy
Stream size                              : 419 MiB (5%)
Language                                : Spanish
Default                                  : Yes
Forced                                  : No
Audio #2
ID                                      : 3
Format                                  : AC-3
Format/Info                              : Audio Coding 3
Mode extension                          : CM (complete main)
Format settings, Endianness              : Big
Codec ID                                : A_AC3
Duration                                : 1h 31mn
Bit rate mode                            : Constant
Bit rate                                : 640 Kbps
Channel(s)                              : 6 channels
Channel positions                        : Front: L C R, Side: L R, LFE
Sampling rate                            : 48.0 KHz
Bit depth                                : 16 bits
Compression mode                        : Lossy
Stream size                              : 419 MiB (5%)
Title                                    : AC3 5.1
Language                                : English
Default                                  : No
Forced                                  : No
Audio #3
ID                                      : 4
Format                                  : DTS
Format/Info                              : Digital Theater Systems
Mode                                    : 16
Format settings, Endianness              : Big
Codec ID                                : A_DTS
Duration                                : 1h 31mn
Bit rate mode                            : Constant
Bit rate                                : 1 509 Kbps
Channel(s)                              : 6 channels
Channel positions                        : Front: L C R, Side: L R, LFE
Sampling rate                            : 48.0 KHz
Bit depth                                : 24 bits
Compression mode                        : Lossy
Stream size                              : 989 MiB (12%)
Title                                    : DTS 5.1
Language                                : English
Default                                  : No
Forced                                  : No
Text #1
ID                                      : 5
Format                                  : VobSub
Muxing mode                              : zlib
Codec ID                                : S_VOBSUB
Codec ID/Info                            : The same subtitle format used on DVDs
Title                                    : Forz
Language                                : Spanish
Default                                  : Yes
Forced                                  : No
Text #2
ID                                      : 6
Format                                  : VobSub
Muxing mode                              : zlib
Codec ID                                : S_VOBSUB
Codec ID/Info                            : The same subtitle format used on DVDs
Language                                : Spanish
Default                                  : No
Forced                                  : No







Código:

https://filejoker.net/1rxkwn2cjzwf/pln3dfevs.part01.rar
https://filejoker.net/uledbegx5gwr/pln3dfevs.part02.rar
https://filejoker.net/qwmmyovc561m/pln3dfevs.part03.rar
https://filejoker.net/538fyvsmgv0e/pln3dfevs.part04.rar
https://filejoker.net/iysfozhhkpze/pln3dfevs.part05.rar
https://filejoker.net/dt5h70idy7in/pln3dfevs.part06.rar
https://filejoker.net/6ybb2emrrm7b/pln3dfevs.part07.rar
https://filejoker.net/ncckk10lf968/pln3dfevs.part08.rar
https://filejoker.net/mp8bsxwn8e7h/pln3dfevs.part09.rar

pomposos

Mensajes : 1564
Fecha de inscripción : 24/10/2011

Ver perfil de usuario

Volver arriba Ir abajo

Ver el tema anterior Ver el tema siguiente Volver arriba

- Temas similares

 
Permisos de este foro:
No puedes responder a temas en este foro.