Buscar
 
 

Resultados por:
 


Rechercher Búsqueda avanzada

Palabras claves

Julio 2017
LunMarMiérJueVieSábDom
     12
3456789
10111213141516
17181920212223
24252627282930
31      

Calendario Calendario

Compañeros

Crear foro



Compañeros

Crear foro




Oz The Great and Powerful (2013) 3D H-SBS 1080p (Ing-Lat)

Ver el tema anterior Ver el tema siguiente Ir abajo

Oz The Great and Powerful (2013) 3D H-SBS 1080p (Ing-Lat)

Mensaje  pomposos el Vie Mayo 26, 2017 4:23 pm




TITULO ORIGINAL: Oz: The Great and Powerful
ANO: 2013
DURACION: 127 min.
PAIS: USA
DIRECTOR: Sam Raimi
GUION: Mitchell Kapner, David Lindsay-Abaire (Novela: L. Frank Baum)
REPARTO: James Franco, Mila Kunis, Rachel Weisz, Michelle Williams, Abigail Spencer, Zach Braff, Joey King, Bill Cobbs, Stephen R. Hart, Martin Klebba, Tony Cox, Otis Winston, Bruce Campbell, Ted Raimi, Tim Holmes, Toni Wynne, Rob Crites, John Paxton, William Dick
PRODUCTORA: Walt Disney Pictures / Roth Films
GENERO: Fantastico. Aventuras | Precuela. Cuentos
Código:
http://www.imdb.com/title/tt1623205/
Sinopsis: En un mundo asolado por los pecados humanos, Noe, un hombre pacifico que solo desea vivir tranquilo con su familia, recibe una mision divina: construir un Arca para salvar a la creacion del inminente diluvio. Todo comienza cuando, cada noche, Noe tiene el mismo sueno: las visiones de muerte provocada por el agua, seguidas de nueva vida en la Tierra
Trailer
https://www.youtube.com/watch?v=YhLaBpvS7os&feature=youtu.be

Código:

General
Format                                  : Matroska
Format version                          : Version 3 / Version 2
File size                                : 11.9 GiB
Duration                                : 2h 10mn
Overall bit rate                        : 13.0 Mbps
Encoded date                            : UTC 2013-06-01 16:33:13
Writing application                      : mkvmerge v5.7.0 (The Whirlwind) built on Jul  8 2012 20:08:51
Writing library                          : libebml v1.2.3 + libmatroska v1.3.0
Video
ID                                      : 1
Format                                  : AVC
Format/Info                              : Advanced Video Codec
Format profile                          : High@L4.1
MultiView_Count                          : 2
MultiView_Layout                        : Side by Side (left eye first)
Format settings, CABAC                  : Yes
Format settings, ReFrames                : 4 frames
Codec ID                                : V_MPEG4/ISO/AVC
Duration                                : 2h 10mn
Bit rate                                : 9 976 Kbps
Width                                    : 1 920 pixels
Height                                  : 1 080 pixels
Display aspect ratio                    : 16:9
Frame rate mode                          : Constant
Frame rate                              : 23.976 fps
Color space                              : YUV
Chroma subsampling                      : 4:2:0
Bit depth                                : 8 bits
Scan type                                : Progressive
Bits/(Pixel*Frame)                      : 0.201
Stream size                              : 9.09 GiB (77%)
Writing library                          : x264 core 133 r2334 a3ac64b
Language                                : English
Default                                  : Yes
Forced                                  : No
Audio #1
ID                                      : 2
Format                                  : AC-3
Format/Info                              : Audio Coding 3
Mode extension                          : CM (complete main)
Format settings, Endianness              : Big
Codec ID                                : A_AC3
Duration                                : 2h 10mn
Bit rate mode                            : Constant
Bit rate                                : 640 Kbps
Channel(s)                              : 6 channels
Channel positions                        : Front: L C R, Side: L R, LFE
Sampling rate                            : 48.0 KHz
Bit depth                                : 16 bits
Compression mode                        : Lossy
Stream size                              : 597 MiB (5%)
Title                                    : AC3 5.1
Language                                : Spanish
Default                                  : Yes
Forced                                  : No
Audio #2
ID                                      : 3
Format                                  : AC-3
Format/Info                              : Audio Coding 3
Mode extension                          : CM (complete main)
Format settings, Endianness              : Big
Codec ID                                : A_AC3
Duration                                : 2h 10mn
Bit rate mode                            : Constant
Bit rate                                : 640 Kbps
Channel(s)                              : 6 channels
Channel positions                        : Front: L C R, Side: L R, LFE
Sampling rate                            : 48.0 KHz
Bit depth                                : 16 bits
Compression mode                        : Lossy
Stream size                              : 597 MiB (5%)
Title                                    : AC3 5.1
Language                                : English
Default                                  : No
Forced                                  : No
Audio #3
ID                                      : 4
Format                                  : DTS
Format/Info                              : Digital Theater Systems
Mode                                    : 16
Format settings, Endianness              : Big
Codec ID                                : A_DTS
Duration                                : 2h 10mn
Bit rate mode                            : Constant
Bit rate                                : 1 509 Kbps
Channel(s)                              : 6 channels
Channel positions                        : Front: L C R, Side: L R, LFE
Sampling rate                            : 48.0 KHz
Bit depth                                : 24 bits
Compression mode                        : Lossy
Stream size                              : 1.38 GiB (12%)
Title                                    : DTS 5.1
Language                                : English
Default                                  : No
Forced                                  : No
Text #1
ID                                      : 5
Format                                  : UTF-8
Codec ID                                : S_TEXT/UTF8
Codec ID/Info                            : UTF-8 Plain Text
Title                                    : Forzados
Language                                : Spanish
Default                                  : Yes
Forced                                  : No
Text #2
ID                                      : 6
Format                                  : UTF-8
Codec ID                                : S_TEXT/UTF8
Codec ID/Info                            : UTF-8 Plain Text
Language                                : Spanish
Default                                  : No
Forced                                  : No






Código:

https://filejoker.net/ase429a3rrmm/ozgref3d.part01.rar
https://filejoker.net/ox0okoxks65h/ozgref3d.part02.rar
https://filejoker.net/b90fyz4fmvzu/ozgref3d.part03.rar
https://filejoker.net/tajuk0faty03/ozgref3d.part04.rar
https://filejoker.net/a77v3ccmyqo2/ozgref3d.part05.rar
https://filejoker.net/4frdmqe9y24q/ozgref3d.part06.rar
https://filejoker.net/d5k9735ujw0x/ozgref3d.part07.rar
https://filejoker.net/r93f2spx9wcd/ozgref3d.part08.rar
https://filejoker.net/jxk9bfsr2llr/ozgref3d.part09.rar
https://filejoker.net/4766rgrypp8p/ozgref3d.part10.rar
https://filejoker.net/im3z8gozmon5/ozgref3d.part11.rar
https://filejoker.net/a2mpxkegmkkw/ozgref3d.part12.rar
https://filejoker.net/sfqfw7dsj39j/ozgref3d.part13.rar
https://filejoker.net/gv4bgaqh17pr/ozgref3d.part14.rar
https://filejoker.net/8ah8xd8mov8m/ozgref3d.part15.rar
https://filejoker.net/f514i8aym0tr/ozgref3d.part16.rar
https://filejoker.net/xsl0onhj7hfk/ozgref3d.part17.rar
https://filejoker.net/myex4no02fb8/ozgref3d.part18.rar
https://filejoker.net/vipjk5ce9adg/ozgref3d.part19.rar
https://filejoker.net/kv6l3ianvsez/ozgref3d.part20.rar
https://filejoker.net/413c8wwslek1/ozgref3d.part21.rar
https://filejoker.net/6hutru6jj03q/ozgref3d.part22.rar
https://filejoker.net/3lz0frwfaqvo/ozgref3d.part23.rar
https://filejoker.net/73ixb61qqnfk/ozgref3d.part24.rar
https://filejoker.net/6bxjc8eebajn/ozgref3d.part25.rar
https://filejoker.net/05b6dxd03sw2/ozgref3d.part26.rar
https://filejoker.net/yc55pypngytl/ozgref3d.part27.rar
https://filejoker.net/nbjyozuzmubn/ozgref3d.part28.rar
https://filejoker.net/0qtwxm3i0xw3/ozgref3d.part29.rar
https://filejoker.net/sjakm2zn9oeb/ozgref3d.part30.rar
https://filejoker.net/g7x1kqqtvv5k/ozgref3d.part31.rar
https://filejoker.net/dfnz2wc6ld3f/ozgref3d.part32.rar
https://filejoker.net/ve2vk0ucwwvg/ozgref3d.part33.rar
https://filejoker.net/i0gn03f6nfuc/ozgref3d.part34.rar
https://filejoker.net/15bm74a27hvl/ozgref3d.part35.rar
https://filejoker.net/qm9zqi3iqym5/ozgref3d.part36.rar
https://filejoker.net/czzjkfoldbr6/ozgref3d.part37.rar
https://filejoker.net/uxlqde6prohn/ozgref3d.part38.rar
https://filejoker.net/py8sttzt7r0j/ozgref3d.part39.rar
https://filejoker.net/wz6d4sgw7pht/ozgref3d.part40.rar
https://filejoker.net/jf29o4c99ilo/ozgref3d.part41.rar
https://filejoker.net/agxolme2veet/ozgref3d.part42.rar
https://filejoker.net/wwuqxv54w87b/ozgref3d.part43.rar
https://filejoker.net/zs30fcv7dbiu/ozgref3d.part44.rar
https://filejoker.net/ty5ykdwp62wq/ozgref3d.part45.rar
https://filejoker.net/7gguo5lm3x1z/ozgref3d.part46.rar
https://filejoker.net/ovykvm3n8lef/ozgref3d.part47.rar
https://filejoker.net/gdniutq8qycq/ozgref3d.part48.rar

pomposos

Mensajes : 716
Fecha de inscripción : 24/10/2011

Ver perfil de usuario

Volver arriba Ir abajo

Ver el tema anterior Ver el tema siguiente Volver arriba

- Temas similares

 
Permisos de este foro:
No puedes responder a temas en este foro.