Buscar
 
 

Resultados por:
 


Rechercher Búsqueda avanzada

Palabras claves

excel  

Últimos temas
Septiembre 2017
LunMarMiérJueVieSábDom
    123
45678910
11121314151617
18192021222324
252627282930 

Calendario Calendario

Compañeros

Crear foro



Compañeros

Crear foro




Monsters University (2013) 3D H-SBS 1080p (Ing-Lat)

Ver el tema anterior Ver el tema siguiente Ir abajo

Monsters University (2013) 3D H-SBS 1080p (Ing-Lat)

Mensaje  pomposos el Vie Mayo 26, 2017 4:01 pm




TITULO ORIGINAL: Monsters University
ANO: 2013
DURACION: 102 min.
PAIS: USA
DIRECTOR: Dan Scanlon
GUION: Robert L. Baird, Daniel Gerson, Dan Scanlon (Personajes: Andrew Stanton, Pete Docter)
REPARTO: Animation
PRODUCTORA: Pixar Animation Studios / Walt Disney Pictures
GENERO: Animacion. Fantastico. Comedia | Monstruos. Colegios & Universidad. Precuela. 3-D
Código:
http://www.imdb.com/title/tt1453405/
Sinopsis: Mike Wazowski (Billy Crystal) y James P. Sullivan (John Goodman) son amigos inseparables, pero no fue siempre asi'. Cuando se conocieron en la Universidad, no se podian soportar, pero acabaron superando sus diferencias y se convirtieron en los mejores amigos. Precuela de la exitosa "Monstruos, S.A.".
Trailer
https://www.youtube.com/watch?v=DpQlsaTiVT0&feature=youtu.be

Código:

General
Format                                  : Matroska
Format version                          : Version 2
File size                                : 8.44 GiB
Duration                                : 1h 44mn
Overall bit rate                        : 11.6 Mbps
Encoded date                            : UTC 2013-10-13 05:34:35
Writing application                      : mkvmerge v5.7.0 ('The Whirlwind') built on Jul  8 2012 20:08:51
Writing library                          : libebml v1.2.3 + libmatroska v1.3.0
Video
ID                                      : 1
Format                                  : AVC
Format/Info                              : Advanced Video Codec
Format profile                          : High@L4.1
Format settings, CABAC                  : Yes
Format settings, ReFrames                : 2 frames
Codec ID                                : V_MPEG4/ISO/AVC
Duration                                : 1h 44mn
Bit rate                                : 10.1 Mbps
Width                                    : 1 920 pixels
Height                                  : 1 080 pixels
Display aspect ratio                    : 16:9
Frame rate mode                          : Constant
Frame rate                              : 23.976 fps
Color space                              : YUV
Chroma subsampling                      : 4:2:0
Bit depth                                : 8 bits
Scan type                                : Progressive
Bits/(Pixel*Frame)                      : 0.203
Stream size                              : 7.34 GiB (87%)
Writing library                          : x264 core
Language                                : English
Default                                  : Yes
Forced                                  : No
Color primaries                          : BT.709
Transfer characteristics                : BT.709
Matrix coefficients                      : BT.709
Audio #1
ID                                      : 2
Format                                  : AC-3
Format/Info                              : Audio Coding 3
Mode extension                          : CM (complete main)
Format settings, Endianness              : Big
Codec ID                                : A_AC3
Duration                                : 1h 44mn
Bit rate mode                            : Constant
Bit rate                                : 640 Kbps
Channel(s)                              : 6 channels
Channel positions                        : Front: L C R, Side: L R, LFE
Sampling rate                            : 48.0 KHz
Bit depth                                : 16 bits
Compression mode                        : Lossy
Stream size                              : 477 MiB (6%)
Title                                    : AC3 5.1
Language                                : Spanish
Default                                  : Yes
Forced                                  : No
Audio #2
ID                                      : 3
Format                                  : AC-3
Format/Info                              : Audio Coding 3
Mode extension                          : CM (complete main)
Format settings, Endianness              : Big
Codec ID                                : A_AC3
Duration                                : 1h 44mn
Bit rate mode                            : Constant
Bit rate                                : 640 Kbps
Channel(s)                              : 6 channels
Channel positions                        : Front: L C R, Side: L R, LFE
Sampling rate                            : 48.0 KHz
Bit depth                                : 16 bits
Compression mode                        : Lossy
Stream size                              : 477 MiB (6%)
Title                                    : AC3 5.1
Language                                : English
Default                                  : No
Forced                                  : No
Text
ID                                      : 4
Format                                  : VobSub
Muxing mode                              : zlib
Codec ID                                : S_VOBSUB
Codec ID/Info                            : The same subtitle format used on DVDs
Language                                : Spanish
Default                                  : No
Forced                                  : No








Código:

https://filejoker.net/s43mile2485f/mouniv3d.part01.rar
https://filejoker.net/c38dr8gsblls/mouniv3d.part02.rar
https://filejoker.net/bd2t966hwz0y/mouniv3d.part03.rar
https://filejoker.net/8blyzhl8kg90/mouniv3d.part04.rar
https://filejoker.net/30sar8yy8i7r/mouniv3d.part05.rar
https://filejoker.net/e8g6rzggkpyt/mouniv3d.part06.rar
https://filejoker.net/979e2aoknla7/mouniv3d.part07.rar
https://filejoker.net/kr7joiwb8crf/mouniv3d.part08.rar
https://filejoker.net/y1rb4hs4u57t/mouniv3d.part09.rar
https://filejoker.net/cach3r209uzj/mouniv3d.part10.rar
https://filejoker.net/o73fxsgg6yh5/mouniv3d.part11.rar
https://filejoker.net/sj6z2nenbp6f/mouniv3d.part12.rar
https://filejoker.net/g760trrsefth/mouniv3d.part13.rar
https://filejoker.net/li80njjyi9i6/mouniv3d.part14.rar
https://filejoker.net/upb7a7vvk5to/mouniv3d.part15.rar
https://filejoker.net/2xjydpxaxjjx/mouniv3d.part16.rar
https://filejoker.net/th0oxxmro5il/mouniv3d.part17.rar
https://filejoker.net/f7wnomwp4pfl/mouniv3d.part18.rar
https://filejoker.net/006bvmvncccr/mouniv3d.part19.rar
https://filejoker.net/skt0o1m2k39b/mouniv3d.part20.rar
https://filejoker.net/ketdlvv3pn5c/mouniv3d.part21.rar
https://filejoker.net/bycnnnf32cp5/mouniv3d.part22.rar
https://filejoker.net/s1aqgf78qga8/mouniv3d.part23.rar
https://filejoker.net/eooy9wlocoge/mouniv3d.part24.rar
https://filejoker.net/kieig693ry3p/mouniv3d.part25.rar
https://filejoker.net/tkzziqit3sb6/mouniv3d.part26.rar
https://filejoker.net/4ctt8htehr0y/mouniv3d.part27.rar
https://filejoker.net/pml4euy0hbnt/mouniv3d.part28.rar
https://filejoker.net/gsevdamjufcz/mouniv3d.part29.rar
https://filejoker.net/9uuz9b5eith1/mouniv3d.part30.rar
https://filejoker.net/q292iv0sd770/mouniv3d.part31.rar
https://filejoker.net/h0clvcfgd34z/mouniv3d.part32.rar
https://filejoker.net/staergfz1bor/mouniv3d.part33.rar
https://filejoker.net/sevzwg69rrim/mouniv3d.part34.rar
https://filejoker.net/2fjtj4zpm2m3/mouniv3d.part35.rar

pomposos

Mensajes : 1594
Fecha de inscripción : 24/10/2011

Ver perfil de usuario

Volver arriba Ir abajo

Ver el tema anterior Ver el tema siguiente Volver arriba

- Temas similares

 
Permisos de este foro:
No puedes responder a temas en este foro.