Buscar
 
 

Resultados por:
 


Rechercher Búsqueda avanzada

Noviembre 2017
LunMarMiérJueVieSábDom
  12345
6789101112
13141516171819
20212223242526
27282930   

Calendario Calendario

Compañeros

Crear foro



Compañeros

Crear foro




Madagascar 3 Europes Most Wanted (2012) 3D H-SBS 1080p (Ing-Lat)

Ver el tema anterior Ver el tema siguiente Ir abajo

Madagascar 3 Europes Most Wanted (2012) 3D H-SBS 1080p (Ing-Lat)

Mensaje  pomposos el Vie Mayo 26, 2017 3:52 pm




TITULO ORIGINAL: Madagascar 3: Europe's Most Wanted
ANO: 2012
DURACION: 85 min.
PAIS: USA
DIRECTOR: Eric Darnell
GUION: Noah Baumbach
REPARTO: Animation
PRODUCTORA: DreamWorks Animation
GENERO: Animacion. Comedia. Aventuras. Infantil
Código:
http://www.imdb.com/title/tt1277953/
Sinopsis: Alex, Marty, Gloria y Melman siguen luchando por regresar a casa en su amada Gran Manzana y por supuesto, el rey Julien, Maurice y los Pinguinos estaran incluidos en la aventura. El viaje de esta peculiar manada los lleva a traves de Europa donde encuentran la coartada perfecta: un circo ambulante que ellos terminan reinventando al estilo Madagascar.
Trailer
https://www.youtube.com/watch?v=PlkWVkpP59U

Código:

General
Format                          : Matroska
Format version                  : Version 2
File size                        : 7.13 GiB
Duration                        : 1h 33mn
Overall bit rate                : 10.9 Mbps
Encoded date                    : UTC 2012-10-06 16:47:40
Writing application              : mkvmerge v4.4.0 ('Die Wiederkehr') built on Oct 31 2010 21:52:48
Writing library                  : libebml v1.0.0 + libmatroska v1.0.0
Video
ID                              : 1
Format                          : AVC
Format/Info                      : Advanced Video Codec
Format profile                  : High@L4.1
MultiView_Count                  : 2
MultiView_Layout                : Right Eye
Format settings, CABAC          : Yes
Format settings, ReFrames        : 4 frames
Muxing mode                      : Header stripping
Codec ID                        : V_MPEG4/ISO/AVC
Duration                        : 1h 33mn
Bit rate                        : 9 626 Kbps
Width                            : 1 920 pixels
Height                          : 1 080 pixels
Display aspect ratio            : 16:9
Frame rate                      : 23.976 fps
Color space                      : YUV
Chroma subsampling              : 4:2:0
Bit depth                        : 8 bits
Scan type                        : Progressive
Bits/(Pixel*Frame)              : 0.194
Stream size                      : 6.28 GiB (88%)
Writing library                  : x264 core 128 r2216 198a7ea
Language                        : English
Default                          : Yes
Forced                          : No
Audio #1
ID                              : 2
Format                          : AC-3
Format/Info                      : Audio Coding 3
Mode extension                  : CM (complete main)
Muxing mode                      : Header stripping
Codec ID                        : A_AC3
Duration                        : 1h 33mn
Bit rate mode                    : Constant
Bit rate                        : 448 Kbps
Channel(s)                      : 6 channels
Channel positions                : Front: L C R, Side: L R, LFE
Sampling rate                    : 48.0 KHz
Bit depth                        : 16 bits
Compression mode                : Lossy
Stream size                      : 299 MiB (4%)
Language                        : Spanish
Default                          : Yes
Forced                          : No
Audio #2
ID                              : 3
Format                          : AC-3
Format/Info                      : Audio Coding 3
Mode extension                  : CM (complete main)
Muxing mode                      : Header stripping
Codec ID                        : A_AC3
Duration                        : 1h 33mn
Bit rate mode                    : Constant
Bit rate                        : 640 Kbps
Channel(s)                      : 6 channels
Channel positions                : Front: L C R, Side: L R, LFE
Sampling rate                    : 48.0 KHz
Bit depth                        : 16 bits
Compression mode                : Lossy
Stream size                      : 428 MiB (6%)
Language                        : English
Default                          : No
Forced                          : No
Text #1
ID                              : 4
Format                          : UTF-8
Codec ID                        : S_TEXT/UTF8
Codec ID/Info                    : UTF-8 Plain Text
Title                            : Forzados
Language                        : Spanish
Default                          : Yes
Forced                          : No
Text #2
ID                              : 5
Format                          : UTF-8
Codec ID                        : S_TEXT/UTF8
Codec ID/Info                    : UTF-8 Plain Text
Language                        : Spanish
Default                          : No
Forced                          : No
Text #3
ID                              : 6
Format                          : UTF-8
Codec ID                        : S_TEXT/UTF8
Codec ID/Info                    : UTF-8 Plain Text
Language                        : English
Default                          : No
Forced                          : No





Código:

https://filejoker.net/y3wk8g9wrp0o/mgas3mn3d.part01.rar
https://filejoker.net/8vyutmokz9m9/mgas3mn3d.part02.rar
https://filejoker.net/9fghfi77pjog/mgas3mn3d.part03.rar
https://filejoker.net/0qvm10o6omxg/mgas3mn3d.part04.rar
https://filejoker.net/khiqs3dvybx1/mgas3mn3d.part05.rar
https://filejoker.net/1vjkvuamwn53/mgas3mn3d.part06.rar
https://filejoker.net/993q44v06yd2/mgas3mn3d.part07.rar
https://filejoker.net/5raufhinngay/mgas3mn3d.part08.rar
https://filejoker.net/nj8kie2s5pzw/mgas3mn3d.part09.rar
https://filejoker.net/yekgpgj77spt/mgas3mn3d.part10.rar
https://filejoker.net/rqf9afglliw8/mgas3mn3d.part11.rar
https://filejoker.net/7s9km6b9810n/mgas3mn3d.part12.rar
https://filejoker.net/zf5ccmso8vuq/mgas3mn3d.part13.rar
https://filejoker.net/6bg8le7kd7rq/mgas3mn3d.part14.rar
https://filejoker.net/nkggiqwafr2s/mgas3mn3d.part15.rar
https://filejoker.net/7d5i9h3gb6u8/mgas3mn3d.part16.rar
https://filejoker.net/c6s60g1iisx3/mgas3mn3d.part17.rar
https://filejoker.net/7fcng3dhielp/mgas3mn3d.part18.rar
https://filejoker.net/ylz72oouvyh4/mgas3mn3d.part19.rar
https://filejoker.net/37zmzzuhbqpw/mgas3mn3d.part20.rar
https://filejoker.net/08gw2w44oloq/mgas3mn3d.part21.rar
https://filejoker.net/zw3c4sirnfjt/mgas3mn3d.part22.rar
https://filejoker.net/a256htzgulz0/mgas3mn3d.part23.rar
https://filejoker.net/636kkm8wnevs/mgas3mn3d.part24.rar
https://filejoker.net/sp5jgc7pqklv/mgas3mn3d.part25.rar
https://filejoker.net/oy5smzyoq1fm/mgas3mn3d.part26.rar
https://filejoker.net/81702fafavhf/mgas3mn3d.part27.rar
https://filejoker.net/mkab5zunq4s4/mgas3mn3d.part28.rar
https://filejoker.net/iwuncull3p4o/mgas3mn3d.part29.rar
https://filejoker.net/pt3n1hq0808q/mgas3mn3d.part30.rar

pomposos

Mensajes : 2212
Fecha de inscripción : 24/10/2011

Ver perfil de usuario

Volver arriba Ir abajo

Ver el tema anterior Ver el tema siguiente Volver arriba


 
Permisos de este foro:
No puedes responder a temas en este foro.