Buscar
 
 

Resultados por:
 


Rechercher Búsqueda avanzada

Palabras claves

Últimos temas
» V.A. Thunderdome Die Hard II (Digital Version) [2016]
Miér Jul 26, 2017 5:20 pm por pomposos

» V.A. The world music collection 200 Instrumental hits [2016]
Miér Jul 26, 2017 4:59 pm por pomposos

» V.A. We Are The Aliens [2017]
Miér Jul 26, 2017 4:38 pm por pomposos

» V.A. UK Top 40 Singles Chart [18.11.2016] [2016]
Miér Jul 26, 2017 4:17 pm por pomposos

» Hola amigo de esta comunidad
Miér Jul 26, 2017 3:59 pm por goku-hdrip

» V.A. Universal Groove (Compiled By DJ Ohkun) [2017]
Miér Jul 26, 2017 3:56 pm por pomposos

» V.A. Unlimited Deep House Collection Vol.1 [2017]
Miér Jul 26, 2017 3:35 pm por pomposos

» V.A. Unlimited Techno Selection Vol 3 [2017]
Miér Jul 26, 2017 3:14 pm por pomposos

» V.A. Uplifting Trance Sessions [Vol.1] [2017]
Miér Jul 26, 2017 2:53 pm por pomposos

Julio 2017
LunMarMiérJueVieSábDom
     12
3456789
10111213141516
17181920212223
24252627282930
31      

Calendario Calendario

Compañeros

Crear foro



Compañeros

Crear foro




How to Train Your Dragon 2 (2014) 3D H-SBS 1080p (Ing-Lat)

Ver el tema anterior Ver el tema siguiente Ir abajo

How to Train Your Dragon 2 (2014) 3D H-SBS 1080p (Ing-Lat)

Mensaje  pomposos el Vie Mayo 26, 2017 3:16 pm




Titulo original: How to Train Your Dragon 2
Ano: 2014
Duracion: 102 min.
Pais: Estados Unidos
Director: Dean DeBlois
Guion: Dean DeBlois (Libros: Cressida Cowell)
Musica: John Powell
Fotografia: Roger Deakins
Reparto: Animation
Productora: DreamWorks Animation / DreamWorks SKG / Mad Hatter Entertainment
Genero: Animacion. Fantastico. Aventuras | Amistad. Cine epico. Vikingos. Dragones. 3-D. Secuela
Sinopsis: Han pasado cinco anos desde que Hipo empezo a entrenar a su dragon, rompiendo la tradicion vikinga de cazarlos. Astrid y el resto de la pandilla han conseguido difundir en la isla un nuevo deporte: las carreras de dragones. Mientras realizan una carrera, atraviesan los cielos llegando a territorios inhospitos, donde nadie antes ha estado. Durante un viaje descubren una cueva cubierta de hielo que resulta ser el refugio de cientos de dragones salvajes, a los que cuida un misterioso guardian. Hipo y los suyos se unen al guardian para proteger a los dragones de las fuerzas malignas que quieren acabar con ellos.
Código:
http://www.imdb.com/title/tt1646971/
Trailer
https://youtu.be/uA18VMvaBv8

Código:

General
Format : Matroska
Format version : Version 4 / Version 2
File size : 11.4 GiB
Duration : 1h 41mn
Overall bit rate : 16.0 Mbps
Encoded date : UTC 2014-10-18 20:40:51
Writing application : mkvmerge v7.1.0 (Good Love) 64bit built on Jul 27 2014 13:06:55
Writing library : libebml v1.3.0 + libmatroska v1.4.1
DURATION : 01:32:28.408000000
Video
ID : 1
Format : AVC
Format/Info : Advanced Video Codec
Format profile : High@L4.1
Format settings, CABAC : Yes
Format settings, ReFrames : 2 frames
Codec ID : V_MPEG4/ISO/AVC
Duration : 1h 41mn
Bit rate : 13.1 Mbps
Width : 1 920 pixels
Height : 816 pixels
Display aspect ratio : 2.35:1
Frame rate mode : Constant
Frame rate : 23.976 fps
Color space : YUV
Chroma subsampling : 4:2:0
Bit depth : 8 bits
Scan type : Progressive
Bits/(Pixel*Frame) : 0.349
Stream size : 9.33 GiB (82%)
Writing library : x264 core
Language : English
Default : Yes
Forced : No
Color primaries : BT.709
Transfer characteristics : BT.709
Matrix coefficients : BT.709
Audio #1
ID : 2
Format : AC-3
Format/Info : Audio Coding 3
Mode extension : CM (complete main)
Format settings, Endianness : Big
Codec ID : A_AC3
Duration : 1h 41mn
Bit rate mode : Constant
Bit rate : 448 Kbps
Channel(s) : 6 channels
Channel positions : Front: L C R, Side: L R, LFE
Sampling rate : 48.0 KHz
Bit depth : 16 bits
Compression mode : Lossy
Stream size : 327 MiB (3%)
Title : AC3 5.1 [BluRay]
Language : Spanish
Default : Yes
Forced : No
Audio #2
ID : 3
Format : AC-3
Format/Info : Audio Coding 3
Mode extension : CM (complete main)
Format settings, Endianness : Big
Codec ID : A_AC3
Duration : 1h 41mn
Bit rate mode : Constant
Bit rate : 640 Kbps
Channel(s) : 6 channels
Channel positions : Front: L C R, Side: L R, LFE
Sampling rate : 48.0 KHz
Bit depth : 16 bits
Compression mode : Lossy
Stream size : 467 MiB (4%)
Title : AC3 5.1
Language : English
Default : No
Forced : No
Audio #3
ID : 4
Format : DTS
Format/Info : Digital Theater Systems
Format profile : ES
Mode : 16
Format settings, Endianness : Big
Codec ID : A_DTS
Duration : 1h 41mn
Bit rate mode : Constant
Bit rate : 1 509 Kbps
Channel(s) : 6 channels
Channel positions : Front: L C R, Side: L R, LFE
Sampling rate : 48.0 KHz
Bit depth : 24 bits
Compression mode : Lossy
Stream size : 1.07 GiB (9%)
Title : DTS 5.1
Language : English
Default : No
Forced : No
Text
ID : 5
Format : VobSub
Muxing mode : zlib
Codec ID : S_VOBSUB
Codec ID/Info : The same subtitle format used on DVDs
Language : Latin
Default : No
Forced : No







Código:

https://filejoker.net/ct0n5jiyfh7u/hodr3ff5d.part01.rar
https://filejoker.net/ts27r0me4ert/hodr3ff5d.part02.rar
https://filejoker.net/nkby0raj8w1i/hodr3ff5d.part03.rar
https://filejoker.net/asqnqwhx9zak/hodr3ff5d.part04.rar
https://filejoker.net/4kcbgjw26j2b/hodr3ff5d.part05.rar
https://filejoker.net/52lqa7u6uwen/hodr3ff5d.part06.rar
https://filejoker.net/3bw1d06x9uzv/hodr3ff5d.part07.rar
https://filejoker.net/zlueqwpyk644/hodr3ff5d.part08.rar
https://filejoker.net/c0iqqk20y4dr/hodr3ff5d.part09.rar
https://filejoker.net/d9rbl195k9lk/hodr3ff5d.part10.rar
https://filejoker.net/2dkjmzn8nqrz/hodr3ff5d.part11.rar
https://filejoker.net/ghlo7lt9730m/hodr3ff5d.part12.rar
https://filejoker.net/zajmob6rigva/hodr3ff5d.part13.rar

pomposos

Mensajes : 727
Fecha de inscripción : 24/10/2011

Ver perfil de usuario

Volver arriba Ir abajo

Ver el tema anterior Ver el tema siguiente Volver arriba

- Temas similares

 
Permisos de este foro:
No puedes responder a temas en este foro.