Buscar
 
 

Resultados por:
 


Rechercher Búsqueda avanzada

Noviembre 2017
LunMarMiérJueVieSábDom
  12345
6789101112
13141516171819
20212223242526
27282930   

Calendario Calendario

Compañeros

Crear foro



Compañeros

Crear foro




Exodus Gods and Kings (2014) 3D H-SBS 1080p (Ing-Lat)

Ver el tema anterior Ver el tema siguiente Ir abajo

Exodus Gods and Kings (2014) 3D H-SBS 1080p (Ing-Lat)

Mensaje  pomposos el Vie Mayo 26, 2017 2:30 pm




Titulo original: Exodus: Gods and Kings
Ano: 2014
Duracion: 151 min.
Pais: Estados Unidos
Director: Ridley Scott
Guion: Steve Zaillian (Historia: Adam Cooper, Bill Collage)
Musica: Alberto Iglesias
Fotografia: Dariusz Wolski
Reparto: Christian Bale, Joel Edgerton, Aaron Paul, Sigourney Weaver, Ben Kingsley, Emun Elliott, John Turturro, Maria Valverde, Anton Alexander, Indira Varma, Ben Mendelsohn, Golshifteh Farahani, Hiam Abbass, Kevork Malikyan, Andrew Tarbet, Aaron Neil, Anna Savva, Barrie Martin, Gerard Monaco, Ghassan Massoud
Productora: Coproduccion Estados Unidos-Espana; Scott Free Productions / 20th Century Fox / Chernin Entertainment / Babieka / Volcano Films
Genero: Aventuras. Drama | Antiguo Egipto. Biblia. Cine epico. 3-D
Código:
http://www.imdb.com/title/tt1528100
Sinopsis: Narra la historia de Moises (Christian Bale), un hombre de extraordinario valor que desafio' al faraon Ramses (Joel Edgerton) y libero' a 600.000 esclavos, que protagonizaron una epica y peligrosa huida a traves de Egipto en busca de la Tierra Prometida.
Trailer
https://www.youtube.com/watch?v=FOoX0b6uJXE&feature=youtu.be

Código:

Format : Matroska
Format version : Version 4 / Version 2
File size : 12.1 GiB
Duration : 2h 30mn
Overall bit rate : 11.5 Mbps
Encoded date : UTC 2015-03-12 01:01:57
Writing application : mkvmerge v7.1.0 (Good Love) 64bit built on Jul 27 2014 13:06:55
Writing library : libebml v1.3.0 + libmatroska v1.4.1
Video
ID : 1
Format : AVC
Format/Info : Advanced Video Codec
Format profile : High@L4.1
MultiView_Count : 2
MultiView_Layout : Side by Side (left eye first)
Format settings, CABAC : Yes
Format settings, ReFrames : 5 frames
Codec ID : V_MPEG4/ISO/AVC
Duration : 2h 30mn
Bit rate : 8 895 Kbps
Width : 1 920 pixels
Height : 800 pixels
Display aspect ratio : 2.40:1
Frame rate mode : Constant
Frame rate : 23.976 fps
Color space : YUV
Chroma subsampling : 4:2:0
Bit depth : 8 bits
Scan type : Progressive
Bits/(Pixel*Frame) : 0.242
Stream size : 9.11 GiB (75%)
Writing library : x264 core 144 r2525 40bb568
Language : English
Default : Yes
Forced : No
Audio #1
ID : 2
Format : AC-3
Format/Info : Audio Coding 3
Mode extension : CM (complete main)
Format settings, Endianness : Big
Codec ID : A_AC3
Duration : 2h 30mn
Bit rate mode : Constant
Bit rate : 448 Kbps
Channel(s) : 6 channels
Channel positions : Front: L C R, Side: L R, LFE
Sampling rate : 48.0 KHz
Bit depth : 16 bits
Compression mode : Lossy
Stream size : 482 MiB (4%)
Title : AC3 5.1 [Blu-Ray]
Language : Spanish
Default : Yes
Forced : No
Audio #2
ID : 3
Format : AC-3
Format/Info : Audio Coding 3
Mode extension : CM (complete main)
Format settings, Endianness : Big
Codec ID : A_AC3
Duration : 2h 30mn
Bit rate mode : Constant
Bit rate : 640 Kbps
Channel(s) : 6 channels
Channel positions : Front: L C R, Side: L R, LFE
Sampling rate : 48.0 KHz
Bit depth : 16 bits
Compression mode : Lossy
Stream size : 688 MiB (6%)
Title : AC3 5.1
Language : English
Default : No
Forced : No
Audio #3
ID : 4
Format : DTS
Format/Info : Digital Theater Systems
Mode : 16
Format settings, Endianness : Big
Codec ID : A_DTS
Duration : 2h 30mn
Bit rate mode : Constant
Bit rate : 1 509 Kbps
Channel(s) : 6 channels
Channel positions : Front: L C R, Side: L R, LFE
Sampling rate : 48.0 KHz
Bit depth : 24 bits
Compression mode : Lossy
Stream size : 1.58 GiB (13%)
Title : DTS 5.1
Language : English
Default : No
Forced : No
Text
ID : 5
Format : VobSub
Muxing mode : zlib
Codec ID : S_VOBSUB
Codec ID/Info : The same subtitle format used on DVDs
Language : Latin Spanish
Default : No
Forced : No








Código:

https://filejoker.net/zjgxawcc6tlm/eodgo3df1s.part01.rar
https://filejoker.net/ceem0ziu6bku/eodgo3df1s.part02.rar
https://filejoker.net/84ucu75ru29c/eodgo3df1s.part03.rar
https://filejoker.net/uqneyhjba1jw/eodgo3df1s.part04.rar
https://filejoker.net/e34tzu8w6vx6/eodgo3df1s.part05.rar
https://filejoker.net/82p38theyt09/eodgo3df1s.part06.rar
https://filejoker.net/l0y50jjrd1hi/eodgo3df1s.part07.rar
https://filejoker.net/9tqv7gq267ir/eodgo3df1s.part08.rar
https://filejoker.net/9usingcet69s/eodgo3df1s.part09.rar
https://filejoker.net/8v5obc8fucm7/eodgo3df1s.part10.rar
https://filejoker.net/2qjpouyac4zr/eodgo3df1s.part11.rar
https://filejoker.net/egdv4cngit2l/eodgo3df1s.part12.rar
https://filejoker.net/mvjjznvq0z83/eodgo3df1s.part13.rar
https://filejoker.net/43f06mgpwvgu/eodgo3df1s.part14.rar
https://filejoker.net/l4xpq8cr5o72/eodgo3df1s.part15.rar
https://filejoker.net/t67sy1b7mk06/eodgo3df1s.part16.rar
https://filejoker.net/2g8ggc1u8xqd/eodgo3df1s.part17.rar
https://filejoker.net/0edjnt963i2q/eodgo3df1s.part18.rar
https://filejoker.net/bq512qk7blmh/eodgo3df1s.part19.rar
https://filejoker.net/djiwi325nahy/eodgo3df1s.part20.rar
https://filejoker.net/sho0btw5teng/eodgo3df1s.part21.rar
https://filejoker.net/gev0xqr57uzn/eodgo3df1s.part22.rar
https://filejoker.net/mg1344btvu58/eodgo3df1s.part23.rar
https://filejoker.net/1bp2rt7jph67/eodgo3df1s.part24.rar
https://filejoker.net/mmbgufz9sss4/eodgo3df1s.part25.rar

pomposos

Mensajes : 2212
Fecha de inscripción : 24/10/2011

Ver perfil de usuario

Volver arriba Ir abajo

Ver el tema anterior Ver el tema siguiente Volver arriba

- Temas similares

 
Permisos de este foro:
No puedes responder a temas en este foro.