Buscar
 
 

Resultados por:
 


Rechercher Búsqueda avanzada

Palabras claves

Últimos temas
» V.A. 90s Aerobics Super Hits [2016]
Vie Jul 21, 2017 10:11 am por pomposos

» V.A. Morphic Resonance Trip To The Stars [2017]
Vie Jul 21, 2017 9:50 am por pomposos

» V.A. Tomorrow is a Dream (Synthwave Mix) [2017]
Vie Jul 21, 2017 9:29 am por pomposos

» V.A. The Rise of the Synths EP 1 [2017]
Vie Jul 21, 2017 9:08 am por pomposos

» V.A. Big Love 20 from Love Radio (18.12.2016) [2016]
Vie Jul 21, 2017 8:47 am por pomposos

» V.A. Ascriliated [2017]
Vie Jul 21, 2017 8:26 am por pomposos

» V.A. Destinations Vol 4 Compiled By Cubixx [2017]
Vie Jul 21, 2017 8:05 am por pomposos

» V.A. Focus Me Lounge [2016]
Vie Jul 21, 2017 7:41 am por pomposos

» V.A. Blues Forever Vol.74 [2017]
Vie Jul 21, 2017 7:19 am por pomposos

Julio 2017
LunMarMiérJueVieSábDom
     12
3456789
10111213141516
17181920212223
24252627282930
31      

Calendario Calendario

Compañeros

Crear foro



Compañeros

Crear foro




Escape from Planet Earth (2013) 3D H-SBS 1080p (Ing-Lat)

Ver el tema anterior Ver el tema siguiente Ir abajo

Escape from Planet Earth (2013) 3D H-SBS 1080p (Ing-Lat)

Mensaje  pomposos el Vie Mayo 26, 2017 2:12 pm




TITULO ORIGINAL: Escape from Planet Earth
ANO: 2013
DURACION: 89 min.
PAIS: USA
DIRECTOR: Callan Brunker
GUION: Bob Barlen, Callan Brunker, Cory Edwards, Tony Leech
REPARTO: Animation
PRODUCTORA: Blue Yonder Films
GENERO: Animacion. Comedia. Ciencia ficcion. Infantil | Extraterrestres. 3-D
Código:
http://www.imdb.com/title/tt0765446/
Sinopsis: La cinta, ambientada en el planeta Baab, cuenta la historia del admirado astronauta Scorch Supernova (Fraser), un heroe nacional del pueblo baabariano. Maestro en rescates audaces, Scorch realiza hazanas asombrosas con la ayuda de su hermano Gary (Corddry), jefe de control de mision en la BASA. Cuando Lena (Alba), jefe de la BASA, informa a los hermanos de un SOS en un planeta conocido por su peligrosidad Scorch rechaza las advertencias de Gary y caera de lleno en una trampa diabolica a manos del malefico Shanker (Gandolfini). Ahora Gary tendra que convertirse en el heroe para rescatar a su hermano, a su planeta, a su amada esposa Kira (Parker) y a su hijo Kip.
https://www.youtube.com/watch?v=BUlotuZrS7k&feature=youtu.be

Código:

General
Format                                  : Matroska
Format version                          : Version 2
File size                                : 8.08 GiB
Duration                                : 1h 29mn
Overall bit rate                        : 13.0 Mbps
Encoded date                            : UTC 2013-06-10 15:25:26
Writing application                      : mkvmerge v5.7.0 (The Whirlwind) built on Jul  8 2012 20:08:51
Writing library                          : libebml v1.2.3 + libmatroska v1.3.0
Video
ID                                      : 1
Format                                  : AVC
Format/Info                              : Advanced Video Codec
Format profile                          : High@L4.1
Format settings, CABAC                  : Yes
Format settings, ReFrames                : 2 frames
Codec ID                                : V_MPEG4/ISO/AVC
Duration                                : 1h 29mn
Bit rate                                : 10.4 Mbps
Width                                    : 1 920 pixels
Height                                  : 1 080 pixels
Display aspect ratio                    : 16:9
Frame rate mode                          : Constant
Frame rate                              : 23.976 fps
Color space                              : YUV
Chroma subsampling                      : 4:2:0
Bit depth                                : 8 bits
Scan type                                : Progressive
Bits/(Pixel*Frame)                      : 0.209
Stream size                              : 6.46 GiB (80%)
Writing library                          : x264 core
Language                                : English
Default                                  : Yes
Forced                                  : No
Color primaries                          : BT.709
Transfer characteristics                : BT.709
Matrix coefficients                      : BT.709
Audio #1
ID                                      : 2
Format                                  : AC-3
Format/Info                              : Audio Coding 3
Mode extension                          : CM (complete main)
Format settings, Endianness              : Big
Codec ID                                : A_AC3
Duration                                : 1h 29mn
Bit rate mode                            : Constant
Bit rate                                : 384 Kbps
Channel(s)                              : 6 channels
Channel positions                        : Front: L C R, Side: L R, LFE
Sampling rate                            : 48.0 KHz
Bit depth                                : 16 bits
Compression mode                        : Lossy
Stream size                              : 245 MiB (3%)
Title                                    : AC3 5.1
Language                                : Spanish
Default                                  : Yes
Forced                                  : No
Audio #2
ID                                      : 3
Format                                  : AC-3
Format/Info                              : Audio Coding 3
Mode extension                          : CM (complete main)
Format settings, Endianness              : Big
Codec ID                                : A_AC3
Duration                                : 1h 29mn
Bit rate mode                            : Constant
Bit rate                                : 448 Kbps
Channel(s)                              : 6 channels
Channel positions                        : Front: L C R, Side: L R, LFE
Sampling rate                            : 48.0 KHz
Bit depth                                : 16 bits
Compression mode                        : Lossy
Stream size                              : 286 MiB (3%)
Title                                    : AC3 5.1
Language                                : English
Default                                  : No
Forced                                  : No
Audio #3
ID                                      : 4
Format                                  : DTS
Format/Info                              : Digital Theater Systems
Mode                                    : 16
Format settings, Endianness              : Big
Codec ID                                : A_DTS
Duration                                : 1h 29mn
Bit rate mode                            : Constant
Bit rate                                : 1 509 Kbps
Channel(s)                              : 6 channels
Channel positions                        : Front: L C R, Side: L R, LFE
Sampling rate                            : 48.0 KHz
Bit depth                                : 24 bits
Compression mode                        : Lossy
Stream size                              : 962 MiB (12%)
Title                                    : DTS 5.1
Language                                : English
Default                                  : No
Forced                                  : No
Text
ID                                      : 5
Format                                  : UTF-8
Codec ID                                : S_TEXT/UTF8
Codec ID/Info                            : UTF-8 Plain Text
Language                                : Spanish
Default                                  : No
Forced                                  : No








Código:

https://filejoker.net/jtripa6uftfw/eses3d6fb1s.part01.rar
https://filejoker.net/vjy1csgr328o/eses3d6fb1s.part02.rar
https://filejoker.net/zwytecxd4l38/eses3d6fb1s.part03.rar
https://filejoker.net/h5jtbcpkgpzt/eses3d6fb1s.part04.rar
https://filejoker.net/77g5pbhk900m/eses3d6fb1s.part05.rar
https://filejoker.net/zqum7o6fh60r/eses3d6fb1s.part06.rar
https://filejoker.net/yworuq01ba87/eses3d6fb1s.part07.rar
https://filejoker.net/ob2cc0nt9ucu/eses3d6fb1s.part08.rar
https://filejoker.net/dtlysirzdlyq/eses3d6fb1s.part09.rar
https://filejoker.net/ymcsxwwhsm0h/eses3d6fb1s.part10.rar
https://filejoker.net/jxxg0550f85y/eses3d6fb1s.part11.rar
https://filejoker.net/dnyyyalavl53/eses3d6fb1s.part12.rar
https://filejoker.net/jwq4tfnsa059/eses3d6fb1s.part13.rar
https://filejoker.net/jyz2afm6odyb/eses3d6fb1s.part14.rar
https://filejoker.net/0ror4jpcvnq1/eses3d6fb1s.part15.rar
https://filejoker.net/8ajjy6cwd44h/eses3d6fb1s.part16.rar
https://filejoker.net/vh9fqf136xbc/eses3d6fb1s.part17.rar

pomposos

Mensajes : 687
Fecha de inscripción : 24/10/2011

Ver perfil de usuario

Volver arriba Ir abajo

Ver el tema anterior Ver el tema siguiente Volver arriba

- Temas similares

 
Permisos de este foro:
No puedes responder a temas en este foro.