Buscar
 
 

Resultados por:
 


Rechercher Búsqueda avanzada

Noviembre 2017
LunMarMiérJueVieSábDom
  12345
6789101112
13141516171819
20212223242526
27282930   

Calendario Calendario

Compañeros

Crear foro



Compañeros

Crear foro




Edge of Tomorrow (2014) 3D H-SBS 1080p (Ing-Lat)

Ver el tema anterior Ver el tema siguiente Ir abajo

Edge of Tomorrow (2014) 3D H-SBS 1080p (Ing-Lat)

Mensaje  pomposos el Vie Mayo 26, 2017 1:54 pm




Titulo original: Edge of Tomorrow
Ano: 2014
Duracion: 113 min.
Pais: Estados Unidos
Director: Doug Liman
Código:
http://www.imdb.com/title/tt1631867
Guion: Jez Butterworth, John-Henry Butterworth, Christopher McQuarrie (Novela: Hiroshi Sakurazaka)
Musica: Christophe Beck
Fotografia: Dion Beebe
Reparto: Tom Cruise, Emily Blunt, Bill Paxton, Jonas Armstrong, Brendan Gleeson, Kick Gurry, Tony Way, Noah Taylor, Charlotte Riley, Franz Drameh, Dragomir Mrsic
Productora: Warner Bros. / Village Roadshow Pictures / 3 Arts Entertainment / Viz Media
Genero: Ciencia ficcion. Accion | Extraterrestres. Viajes en el tiempo. 3-D
Sinopsis: En un futuro no muy lejano, invade la Tierra una raza de extraterrestres invencibles. Al Comandante William Cage (Tom Cruise), un oficial que nunca ha entrado en combate, le encargan una mision casi suicida y resulta muerto. Entra entonces en un bucle temporal, en el que se ve obligado a luchar y morir una y otra vez. Pero las multiples batallas que libra lo hacen cada vez mas habil y eficaz en su lucha contra los alienigenas. Su companera de combate es Rita Vrataski (Emily Blunt), una guerrera de las Fuerzas Especiales. Adaptacion del manga de Hiroshi Sakurazaka.
https://www.youtube.com/watch?v=qYwV69MGTYU

Código:

General
Format : Matroska
Format version : Version 4 / Version 2
File size : 8.95 GiB
Duration : 1h 53mn
Overall bit rate : 11.3 Mbps
Encoded date : UTC 2014-09-19 22:58:21
Writing application : mkvmerge v7.1.0 ('Good Love') 64bit built on Jul 27 2014 13:06:55
Writing library : libebml v1.3.0 + libmatroska v1.4.1
Video
ID : 1
Format : AVC
Format/Info : Advanced Video Codec
Format profile : High@L4.1
Format settings, CABAC : Yes
Format settings, ReFrames : 5 frames
Codec ID : V_MPEG4/ISO/AVC
Duration : 1h 53mn
Bit rate : 8 508 Kbps
Width : 1 920 pixels
Height : 800 pixels
Display aspect ratio : 2.40:1
Frame rate mode : Constant
Frame rate : 23.976 fps
Color space : YUV
Chroma subsampling : 4:2:0
Bit depth : 8 bits
Scan type : Progressive
Bits/(Pixel*Frame) : 0.231
Stream size : 6.56 GiB (73%)
Writing library : x264 core 142 r2453 ea0ca51
Language : English
Default : Yes
Forced : No
Audio #1
ID : 2
Format : AC-3
Format/Info : Audio Coding 3
Mode extension : CM (complete main)
Format settings, Endianness : Big
Codec ID : A_AC3
Duration : 1h 53mn
Bit rate mode : Constant
Bit rate : 640 Kbps
Channel(s) : 6 channels
Channel positions : Front: L C R, Side: L R, LFE
Sampling rate : 48.0 KHz
Bit depth : 16 bits
Compression mode : Lossy
Stream size : 520 MiB (6%)
Title : AC3 5.1 [BluRay]
Language : Spanish
Default : Yes
Forced : No
Audio #2
ID : 3
Format : AC-3
Format/Info : Audio Coding 3
Mode extension : CM (complete main)
Format settings, Endianness : Big
Codec ID : A_AC3
Duration : 1h 53mn
Bit rate mode : Constant
Bit rate : 640 Kbps
Channel(s) : 6 channels
Channel positions : Front: L C R, Side: L R, LFE
Sampling rate : 48.0 KHz
Bit depth : 16 bits
Compression mode : Lossy
Stream size : 520 MiB (6%)
Title : AC3 5.1
Language : English
Default : No
Forced : No
Audio #3
ID : 4
Format : DTS
Format/Info : Digital Theater Systems
Mode : 16
Format settings, Endianness : Big
Codec ID : A_DTS
Duration : 1h 53mn
Bit rate mode : Constant
Bit rate : 1 509 Kbps
Channel(s) : 6 channels
Channel positions : Front: L C R, Side: L R, LFE
Sampling rate : 48.0 KHz
Bit depth : 24 bits
Compression mode : Lossy
Stream size : 1.20 GiB (13%)
Title : DTS 5.1
Language : English
Default : No
Forced : No
Text #1
ID : 5
Format : UTF-8
Codec ID : S_TEXT/UTF8
Codec ID/Info : UTF-8 Plain Text
Language : Spanish
Default : Yes
Forced : No
Text #2
ID : 6
Format : UTF-8
Codec ID : S_TEXT/UTF8
Codec ID/Info : UTF-8 Plain Text
Language : Spanish
Default : No
Forced : No








Código:

https://filejoker.net/8s072ub2dc6i/edto3dv6c.part01.rar
https://filejoker.net/mfcr0pn2mvqm/edto3dv6c.part02.rar
https://filejoker.net/8fucnsh9itdz/edto3dv6c.part03.rar
https://filejoker.net/u97ryv6vxrki/edto3dv6c.part04.rar
https://filejoker.net/37mmi9z7w10a/edto3dv6c.part05.rar
https://filejoker.net/lvfly0plrk9x/edto3dv6c.part06.rar
https://filejoker.net/eacbvyhuvxem/edto3dv6c.part07.rar
https://filejoker.net/vow8jta6spjg/edto3dv6c.part08.rar
https://filejoker.net/32p9ibd9vuqb/edto3dv6c.part09.rar
https://filejoker.net/2vr63aggm514/edto3dv6c.part10.rar
https://filejoker.net/otvffx52463j/edto3dv6c.part11.rar
https://filejoker.net/to1argx62cw8/edto3dv6c.part12.rar
https://filejoker.net/ar405al65en7/edto3dv6c.part13.rar
https://filejoker.net/zwpsze57gpp4/edto3dv6c.part14.rar
https://filejoker.net/8937hdebcxzt/edto3dv6c.part15.rar
https://filejoker.net/7c7vpi0xw5cb/edto3dv6c.part16.rar
https://filejoker.net/2kbjbpqkumpw/edto3dv6c.part17.rar
https://filejoker.net/aa6vs7jzsasr/edto3dv6c.part18.rar
https://filejoker.net/gfkjg7cbat7x/edto3dv6c.part19.rar

pomposos

Mensajes : 2212
Fecha de inscripción : 24/10/2011

Ver perfil de usuario

Volver arriba Ir abajo

Ver el tema anterior Ver el tema siguiente Volver arriba


 
Permisos de este foro:
No puedes responder a temas en este foro.