Buscar
 
 

Resultados por:
 


Rechercher Búsqueda avanzada

Palabras claves

excel  

Septiembre 2017
LunMarMiérJueVieSábDom
    123
45678910
11121314151617
18192021222324
252627282930 

Calendario Calendario

Compañeros

Crear foro



Compañeros

Crear foro




Cloudy with a Chance of Meatballs 2 (2013) 3D H-SBS 1080p (Ing-Lat)

Ver el tema anterior Ver el tema siguiente Ir abajo

Cloudy with a Chance of Meatballs 2 (2013) 3D H-SBS 1080p (Ing-Lat)

Mensaje  pomposos el Vie Mayo 26, 2017 1:35 pm




TITULO ORIGINAL: Cloudy with a Chance of Meatballs 2
ANO: 2013
DURACION: 95 min.
PAIS: USA
DIRECTOR: Cody Cameron, Kris Pearn
GUION: John Francis Daley, Jonathan M. Goldstein (Personajes: Judi Barrett, Ron Barrett)
REPARTO: Animation
PRODUCTORA: Sony Pictures Animation / Sony Pictures Imageworks (SPI) / Columbia Pictures
GENERO: Animacion. Comedia. Fantastico. Aventuras | Animales. Secuela. 3-D
Código:
http://www.imdb.com/title/tt1985966/
Premios: 2013: Satellite Awards: Nominada a Mejor pelicula de animacion
2013: Premios Annie: 3 nominaciones
Sinopsis: "Lluvia de Hamburguesas 2" empieza exactamente donde terminaba la primera parte. El genio del inventor Flint Lockwoods acaba siendo reconocido por su idolo Chester V, que lo invita a unirse a la The Live Corp Company, donde los inventores mas brillantes del mundo crean nuevas tecnologias para el bienestar de la humanidad. La mano derecha de Chester es Barb: una orangutana dotada de un cerebro humano altamente evolucionado que le permite ser muy retorcida y manipuladora. El sueno de Flint cambia cuando descubre que la maquina de su invencion, destinada a convertir el agua en alimentos, ha pasado a crear hibridos de animales-comida. Para salvar a la humanidad, Chester envia a Flint y a sus colegas a una peligrosa mision, que los llevara' a enfrentarse a tacocodrilos, gambances, quesoaranas con doble de bacon y otras criaturas igualmente extravagantes.
Trailer
https://www.youtube.com/watch?v=JH_4P-I1_e0&feature=youtu.be

Código:

General
Format Matroska
Format version Version 2
File size 13.4 GiB
Duration 1h 34mn
Overall bit rate mode Variable
Overall bit rate 20.2 Mbps
Encoded date UTC 2014-01-14 22:31:41
Writing application mkvmerge v5.7.0 ('The Whirlwind') built on Jul  8 2012 20:08:51
Writing library libebml v1.2.3 + libmatroska v1.3.0
Video
ID 1
Format/Info  Advanced Video Codec
Format profile High@L4.1
Format settings, CABAC Yes
Format settings, ReFrames 2 frames
Muxing mode Header stripping
Codec ID V_MPEG4/ISO/AVC
Duration 1h 34mn
Width 1 920 pixels
Height 800 pixels
Display aspect ratio 2.40:1
Frame rate mode Constant
Frame rate 23.976 fps
Color space YUV
Chroma subsampling 4:2:0
Bit depth  8 bits
Scan type Progressive
Writing library  x264 core
Language English
Default Yes
Forced  No
Color primaries BT.709
Transfer characteristics BT.709
Matrix coefficients BT.709
Audio #1
ID 2
Format AC-3
Format/Info Audio Coding 3
Mode extension CM (complete main)
Format settings, Endianness  Big
Muxing mode Header stripping
Codec ID A_AC3
Duration                                : 1h 34mn
Bit rate mode                            : Constant
Bit rate                                : 640 Kbps
Channel(s)                              : 6 channels
Channel positions                        : Front: L C R, Side: L R, LFE
Sampling rate                            : 48.0 KHz
Bit depth                                : 16 bits
Compression mode                        : Lossy
Stream size                              : 434 MiB (3%)
Title                                    : AC3
Language                                : Spanish
Default                                  : Yes
Forced                                  : No
Audio #2
ID                                      : 3
Format                                  : AC-3
Format/Info                              : Audio Coding 3
Mode extension                          : CM (complete main)
Format settings, Endianness              : Big
Muxing mode                              : Header stripping
Codec ID                                : A_AC3
Duration                                : 1h 34mn
Bit rate mode                            : Constant
Bit rate                                : 640 Kbps
Channel(s)                              : 6 channels
Channel positions                        : Front: L C R, Side: L R, LFE
Sampling rate                            : 48.0 KHz
Bit depth                                : 16 bits
Compression mode                        : Lossy
Stream size                              : 434 MiB (3%)
Title                                    : AC3
Language                                : English
Default                                  : No
Forced                                  : No
Audio #3
ID                                      : 4
Format                                  : DTS
Format/Info                              : Digital Theater Systems
Format profile                          : MA / Core
Mode                                    : 16
Format settings, Endianness              : Big
Muxing mode                              : Header stripping
Codec ID                                : A_DTS
Duration                                : 1h 34mn
Bit rate mode                            : Variable
Bit rate                                : Unknown / 1 509 Kbps
Channel(s)                              : 6 channels
Channel positions                        : Front: L C R, Side: L R, LFE
Sampling rate                            : 48.0 KHz
Bit depth                                : 24 bits
Compression mode                        : Lossless / Lossy
Title                                    : DTS
Language                                : English
Default                                  : No
Forced                                  : No
Text #1
ID                                      : 5
Format                                  : VobSub
Muxing mode                              : zlib
Codec ID                                : S_VOBSUB
Codec ID/Info                            : The same subtitle format used on DVDs
Language                                : Spanish
Default                                  : Yes
Forced                                  : No
Text #2
ID                                      : 6
Format                                  : VobSub
Muxing mode                              : zlib
Codec ID                                : S_VOBSUB
Codec ID/Info  The same subtitle format used on DVDs
Language  Spanish
Default No
Forced No







Código:

https://filejoker.net/v7jw45cnuhju/cl1w4f3dsc.part01.rar
https://filejoker.net/80nhnbw290si/cl1w4f3dsc.part02.rar
https://filejoker.net/lvfn8n361jm3/cl1w4f3dsc.part03.rar
https://filejoker.net/4wpb1n73u79o/cl1w4f3dsc.part04.rar
https://filejoker.net/sbhn5r5rz3su/cl1w4f3dsc.part05.rar
https://filejoker.net/afi3m20468re/cl1w4f3dsc.part06.rar
https://filejoker.net/a0on4kw79r2l/cl1w4f3dsc.part07.rar
https://filejoker.net/ilntdl84iflg/cl1w4f3dsc.part08.rar
https://filejoker.net/3hi00mpu3lps/cl1w4f3dsc.part09.rar
https://filejoker.net/eg57p9ux354w/cl1w4f3dsc.part10.rar
https://filejoker.net/wjin3sg3dnyn/cl1w4f3dsc.part11.rar
https://filejoker.net/3h87xek7x8id/cl1w4f3dsc.part12.rar
https://filejoker.net/ynkvsezaqmng/cl1w4f3dsc.part13.rar
https://filejoker.net/8jk6582jia7q/cl1w4f3dsc.part14.rar
https://filejoker.net/69zwrtgevarv/cl1w4f3dsc.part15.rar
https://filejoker.net/3o5rcol9gbpa/cl1w4f3dsc.part16.rar
https://filejoker.net/2kaxctpn8xi2/cl1w4f3dsc.part17.rar
https://filejoker.net/tfra9jpaqvpl/cl1w4f3dsc.part18.rar
https://filejoker.net/sluibdry0sf6/cl1w4f3dsc.part19.rar
https://filejoker.net/bo89m5te282h/cl1w4f3dsc.part20.rar
https://filejoker.net/rc915j98eq36/cl1w4f3dsc.part21.rar
https://filejoker.net/5lu29mvnl280/cl1w4f3dsc.part22.rar
https://filejoker.net/qja083a495ol/cl1w4f3dsc.part23.rar
https://filejoker.net/b048vciebe5c/cl1w4f3dsc.part24.rar
https://filejoker.net/qlnb9gz0hwt7/cl1w4f3dsc.part25.rar
https://filejoker.net/1at2hhgfrvny/cl1w4f3dsc.part26.rar
https://filejoker.net/yj0xdrv1hvpf/cl1w4f3dsc.part27.rar
https://filejoker.net/op93e6tcz237/cl1w4f3dsc.part28.rar

pomposos

Mensajes : 1564
Fecha de inscripción : 24/10/2011

Ver perfil de usuario

Volver arriba Ir abajo

Ver el tema anterior Ver el tema siguiente Volver arriba

- Temas similares

 
Permisos de este foro:
No puedes responder a temas en este foro.