Buscar
 
 

Resultados por:
 


Rechercher Búsqueda avanzada

Palabras claves

Julio 2017
LunMarMiérJueVieSábDom
     12
3456789
10111213141516
17181920212223
24252627282930
31      

Calendario Calendario

Compañeros

Crear foro



Compañeros

Crear foro




Big Hero 6 (2014) 3D H-SBS 1080p (Ing-Lat)

Ver el tema anterior Ver el tema siguiente Ir abajo

Big Hero 6 (2014) 3D H-SBS 1080p (Ing-Lat)

Mensaje  pomposos el Vie Mayo 26, 2017 12:59 pm




Titulo original: Big Hero 6
Ano: 2014
Duracion: 108 min.
Pais: Estados Unidos
Director: Chris Williams, Don Hall
Código:
http://www.imdb.com/title/tt2245084
Guion: Don Hall, Jordan Roberts, Robert L. Baird (Comic: Duncan Rouleau, Steven T. Seagle)
Musica: Henry Jackman
Fotografia: Animation
Reparto: Animation
Productora: Walt Disney Animation Studios / Walt Disney Pictures
Genero: Animacion. Fantastico | Superheroes. Comic. Marvel Comics
Premios: 2014: Premios Oscar: Nominada a Mejor largometraje animacion
2014: Globos de Oro: Nominada a Mejor filme de animacion
2014: Premios BAFTA: Nominada a Mejor pelicula de animacion
2014: Premios Annie: Mejores efectos animados. 7 nominaciones
2014: Satellite Awards: Nominada a Mejor largometraje animacion
2014: Critics Choice Awards: Nominad a Mejor largometraje de animacion
2014: Criticos de Chicago: Nominada a Mejor film de animacion
Sinopsis: En la metropolis de San Fransokyo (cruce de San Francisco y Tokio), vive Hiro Hamada, quien aprende a sacar provecho de su capacidad gracias a su brillante hermano Tadashi y sus tambien brillantes amigos: la buscadora de adrenalina GoGo Tamago, el meticuloso de la limpieza Wasabi-No-Ginger, la genia de la quimica Honey Lemon y el fanatico de los comics Fred. Cuando tras un devastador giro de los acontecimientos, se ven envueltos en una peligrosa conspiracion que tiene lugar en las calles de San Fransokyo, Hiro recurre a su amigo mas intimo: un robot llamado Baymax, y transforma al grupo en una banda de heroes de ultima tecnologia decididos a resolver el misterio.
Trailer
https://www.youtube.com/watch?v=SlahrTWDk4g

Código:

General
Format : Matroska
Format version : Version 4 / Version 2
File size : 9.10 GiB
Duration : 1h 41mn
Overall bit rate : 12.8 Mbps
Encoded date : UTC 2015-03-06 00:02:41
Writing application : mkvmerge v7.1.0 (Good Love) 64bit built on Jul 27 2014 13:06:55
Writing library : libebml v1.3.0 + libmatroska v1.4.1
Video
ID : 1
Format : AVC
Format/Info : Advanced Video Codec
Format profile : High@L4.1
Format settings, CABAC : Yes
Format settings, ReFrames : 4 frames
Codec ID : V_MPEG4/ISO/AVC
Duration : 1h 41mn
Bit rate : 10 000 Kbps
Width : 1 920 pixels
Height : 1 080 pixels
Display aspect ratio : 16:9
Frame rate mode : Constant
Frame rate : 23.976 fps
Color space : YUV
Chroma subsampling : 4:2:0
Bit depth : 8 bits
Scan type : Progressive
Bits/(Pixel*Frame) : 0.201
Stream size : 6.94 GiB (76%)
Writing library : x264 core 133 r2334 a3ac64b
Language : English
Default : Yes
Forced : No
Audio #1
ID : 2
Format : AC-3
Format/Info : Audio Coding 3
Mode extension : CM (complete main)
Format settings, Endianness : Big
Codec ID : A_AC3
Duration : 1h 41mn
Bit rate mode : Constant
Bit rate : 640 Kbps
Channel(s) : 6 channels
Channel positions : Front: L C R, Side: L R, LFE
Sampling rate : 48.0 KHz
Bit depth : 16 bits
Compression mode : Lossy
Stream size : 466 MiB (5%)
Language : Spanish
Default : Yes
Forced : No
Audio #2
ID : 3
Format : AC-3
Format/Info : Audio Coding 3
Mode extension : CM (complete main)
Format settings, Endianness : Big
Codec ID : A_AC3
Duration : 1h 41mn
Bit rate mode : Constant
Bit rate : 640 Kbps
Channel(s) : 6 channels
Channel positions : Front: L C R, Side: L R, LFE
Sampling rate : 48.0 KHz
Bit depth : 16 bits
Compression mode : Lossy
Stream size : 466 MiB (5%)
Title : AC3 5.1
Language : English
Default : No
Forced : No
Audio #3
ID : 4
Format : DTS
Format/Info : Digital Theater Systems
Mode : 16
Format settings, Endianness : Big
Codec ID : A_DTS
Duration : 1h 41mn
Bit rate mode : Constant
Bit rate : 1 509 Kbps
Channel(s) : 6 channels
Channel positions : Front: L C R, Side: L R, LFE
Sampling rate : 48.0 KHz
Bit depth : 24 bits
Compression mode : Lossy
Stream size : 1.07 GiB (12%)
Title : DTS 5.1
Language : English
Default : No
Forced : No
Text
ID : 5
Format : UTF-8
Codec ID : S_TEXT/UTF8
Codec ID/Info : UTF-8 Plain Text
Language : Spanish
Default : No
Forced : No








Código:

https://filejoker.net/6q3cchevx6x3/biher63dfc.part01.rar
https://filejoker.net/orqvwcduy9s0/biher63dfc.part02.rar
https://filejoker.net/u2xd4kus5jlg/biher63dfc.part03.rar
https://filejoker.net/k005mt8xaic5/biher63dfc.part04.rar
https://filejoker.net/lm27jyf7eskj/biher63dfc.part05.rar
https://filejoker.net/algi0rz935gn/biher63dfc.part06.rar
https://filejoker.net/ngpmnh7f4jz2/biher63dfc.part07.rar
https://filejoker.net/baxnliznc7xg/biher63dfc.part08.rar
https://filejoker.net/mxtyjvv9wpnq/biher63dfc.part09.rar
https://filejoker.net/trtm4nt8fogm/biher63dfc.part10.rar
https://filejoker.net/7gjlxmq3428p/biher63dfc.part11.rar
https://filejoker.net/xyp5jnhmkr5w/biher63dfc.part12.rar
https://filejoker.net/rue5xb0db77h/biher63dfc.part13.rar
https://filejoker.net/0wr3t7dl5v1e/biher63dfc.part14.rar
https://filejoker.net/727xtlfqnyiz/biher63dfc.part15.rar
https://filejoker.net/qqjtbv07e8tl/biher63dfc.part16.rar
https://filejoker.net/nxe8vt43wh2g/biher63dfc.part17.rar
https://filejoker.net/azenw26fbuet/biher63dfc.part18.rar
https://filejoker.net/pjk4n99gvrw0/biher63dfc.part19.rar

pomposos

Mensajes : 716
Fecha de inscripción : 24/10/2011

Ver perfil de usuario

Volver arriba Ir abajo

Ver el tema anterior Ver el tema siguiente Volver arriba

- Temas similares

 
Permisos de este foro:
No puedes responder a temas en este foro.