Buscar
 
 

Resultados por:
 


Rechercher Búsqueda avanzada

Palabras claves

excel  

Últimos temas
Septiembre 2017
LunMarMiérJueVieSábDom
    123
45678910
11121314151617
18192021222324
252627282930 

Calendario Calendario

Compañeros

Crear foro



Compañeros

Crear foro




12 Years a Slave (2013) FullHD 1080p (Ing-Lat)

Ver el tema anterior Ver el tema siguiente Ir abajo

12 Years a Slave (2013) FullHD 1080p (Ing-Lat)

Mensaje  pomposos el Vie Mayo 26, 2017 12:14 pm




Código:
 http://www.imdb.com/title/tt2024544/?ref_=fn_al_tt_1
Titulo original 12 Years a Slave (Doce anos de esclavo)
Ano 2013
Duracion 133 min.
Pais: Estados Unidos
Director Steve McQueen
Guion John Ridley (Biografia: Solomon Northup)
Musica Hans Zimmer
Fotografia Sean Bobbitt
En el papel de Chiwetel Ejiofor, de Michael Fassbender, de Lupita Nyongo, de Paul Dano, de Benedict Cumberbatch, de Paul Giamatti, de Sarah Paulson, de Brad Pitt, de Alfre Woodard, de Adepero Oduye, de Chris Chalk, de Garret Dillahunt, de Dwight Henry, de Scooter McNairy, de Taran Killam, de Michael K. Williams Ashley Dyke, Quvenzhane 'Wallis, Rob Steinberg, Bryan Batt
Studio Summit Entretenimiento / Plano B / River Road Entretenimiento / New Regency Pictures / Film4
Genero dramatico | Basado en una historia real. Biografico. Esclavitud. Racismo. XIX. Historico
Sinopsis Basado en una historia verdadera pasada en 1850, cuenta la historia de Solomon Northup, un negro del culto del musico que vivio' con su familia en Nueva York. Despues de una copa con dos hombres, Salomon descubre que ha sido drogado y secuestrado para ser vendido como esclavo en una plantacion en Louisiana. Solomon visto como todo el mundo a su alrededor sucumbir a la violencia y la desesperacion. Pero el decide no darse por vencido y esperar el momento adecuado para recuperar la libertad y volver a su tiempo familiar
https://www.youtube.com/watch?v=UbbYJoTZK0o

Código:

Format : Matroska
Format version : Version 4 / Version 2
File size : 9.05 GiB
Duration : 2h 14mn
Overall bit rate : 9 660 Kbps
Movie name : 12 Anos Esclavo (2013) Full HD 1080p
Encoded date : UTC 2015-03-23 12:12:21
Writing application : mkvmerge v7.4.0 (Circles) 64bit
Writing library : libebml v1.3.0 + libmatroska v1.4.1
DURATION : 00:00:10.100000000
NUMBER_OF_FRAMES : 1
NUMBER_OF_BYTES : 103
_STATISTICS_WRITING_APP : mkvmerge v7.4.0 (Circles) 64bit
_STATISTICS_WRITING_DATE_UTC : 2015-03-23 12:12:21
_STATISTICS_TAGS : BPS DURATION NUMBER_OF_FRAMES NUMBER_OF_BYTES
Video
ID : 1
Format : AVC
Format/Info : Advanced Video Codec
Format profile : High@L4.1
Format settings, CABAC : Yes
Format settings, ReFrames : 4 frames
Codec ID : V_MPEG4/ISO/AVC
Duration : 2h 14mn
Bit rate : 7 511 Kbps
Nominal bit rate : 8 000 Kbps
Width : 1 920 pixels
Height : 1 080 pixels
Display aspect ratio : 16:9
Frame rate mode : Constant
Frame rate : 23.976 fps
Color space : YUV
Chroma subsampling : 4:2:0
Bit depth : 8 bits
Scan type : Progressive
Bits/(Pixel*Frame) : 0.151
Stream size : 7.04 GiB (78%)
Writing library : x264 core 142 r2479 dd79a61
Default : Yes
Forced : No
Color primaries : BT.709
Transfer characteristics : BT.709
Matrix coefficients : BT.709
DURATION : 02:14:10.084000000
NUMBER_OF_FRAMES : 193009
NUMBER_OF_BYTES : 7730704961
_STATISTICS_WRITING_APP : mkvmerge v7.4.0 (Circles) 64bit
_STATISTICS_WRITING_DATE_UTC : 2015-03-23 12:12:21
_STATISTICS_TAGS : BPS DURATION NUMBER_OF_FRAMES NUMBER_OF_BYTES
Audio #1
ID : 2
Format : AC-3
Format/Info : Audio Coding 3
Mode extension : CM (complete main)
Format settings, Endianness : Big
Codec ID : A_AC3
Duration : 2h 14mn
Bit rate mode : Constant
Bit rate : 448 Kbps
Channel count : 6 channels
Channel positions : Front: L C R, Side: L R, LFE
Sampling rate : 48.0 KHz
Bit depth : 16 bits
Compression mode : Lossy
Stream size : 430 MiB (5%)
Language : Spanish
Default : Yes
Forced : No
DURATION : 02:14:10.112000000
NUMBER_OF_FRAMES : 251566
NUMBER_OF_BYTES : 450806272
_STATISTICS_WRITING_APP : mkvmerge v7.4.0 (Circles) 64bit
_STATISTICS_WRITING_DATE_UTC : 2015-03-23 12:12:21
_STATISTICS_TAGS : BPS DURATION NUMBER_OF_FRAMES NUMBER_OF_BYTES
Audio #2
ID : 3
Format : DTS
Format/Info : Digital Theater Systems
Mode : 16
Format settings, Endianness : Big
Codec ID : A_DTS
Duration : 2h 14mn
Bit rate mode : Constant
Bit rate : 1 509 Kbps
Channel count : 6 channels
Channel positions : Front: L C R, Side: L R, LFE
Sampling rate : 48.0 KHz
Bit depth : 24 bits
Compression mode : Lossy
Stream size : 1.41 GiB (16%)
Language : English
Default : No
Forced : No
DURATION : 02:14:10.080000000
NUMBER_OF_FRAMES : 754695
NUMBER_OF_BYTES : 1518446340
_STATISTICS_WRITING_APP : mkvmerge v7.4.0 (Circles) 64bit
_STATISTICS_WRITING_DATE_UTC : 2015-03-23 12:12:21
_STATISTICS_TAGS : BPS DURATION NUMBER_OF_FRAMES NUMBER_OF_BYTES
Text #1
ID : 4
Format : PGS
Muxing mode : zlib
Codec ID : S_HDMV/PGS
Codec ID/Info : The same subtitle format used on BDs/HD-DVDs
Language : Spanish
Default : No
Forced : No
DURATION : 02:13:11.234000000
NUMBER_OF_FRAMES : 2794
NUMBER_OF_BYTES : 7752943
_STATISTICS_WRITING_APP : mkvmerge v7.4.0 (Circles) 64bit
_STATISTICS_WRITING_DATE_UTC : 2015-03-23 12:12:21
_STATISTICS_TAGS : BPS DURATION NUMBER_OF_FRAMES NUMBER_OF_BYTES
Text #2
ID : 5
Format : PGS
Muxing mode : zlib
Codec ID : S_HDMV/PGS
Codec ID/Info : The same subtitle format used on BDs/HD-DVDs
Language : English
Default : No
Forced : No
DURATION : 02:12:32.027000000
NUMBER_OF_FRAMES : 3332
NUMBER_OF_BYTES : 9788214
_STATISTICS_WRITING_APP : mkvmerge v7.4.0 (Circles) 64bit
_STATISTICS_WRITING_DATE_UTC : 2015-03-23 12:12:21
_STATISTICS_TAGS : BPS DURATION NUMBER_OF_FRAMES NUMBER_OF_BYTES
Text #3
ID : 6
Format : UTF-8
Codec ID : S_TEXT/UTF8
Codec ID/Info : UTF-8 Plain Text
Language : Latin
Default : Yes
Forced : No







Código:

https://filejoker.net/axnh1ie9imcz/12yslhdd.part01.rar
https://filejoker.net/k4q5vyxhhwtp/12yslhdd.part02.rar
https://filejoker.net/18gnve7xttff/12yslhdd.part03.rar
https://filejoker.net/ka8f4jtk7owg/12yslhdd.part04.rar
https://filejoker.net/ezl7x0rl5jv0/12yslhdd.part05.rar
https://filejoker.net/aq6cqq9pques/12yslhdd.part06.rar
https://filejoker.net/3dclvtw58cc5/12yslhdd.part07.rar
https://filejoker.net/g5rd10z34hxx/12yslhdd.part08.rar
https://filejoker.net/tqb1bjbsv0yp/12yslhdd.part09.rar
https://filejoker.net/ep552cdxxzcl/12yslhdd.part10.rar
https://filejoker.net/u5ld44vqkdwz/12yslhdd.part11.rar
https://filejoker.net/v11ed0r2p5ha/12yslhdd.part12.rar
https://filejoker.net/dihticsi377a/12yslhdd.part13.rar
https://filejoker.net/mum9ac7j42jr/12yslhdd.part14.rar
https://filejoker.net/uy29rkhz9uf6/12yslhdd.part15.rar
https://filejoker.net/2le3g7j4fq44/12yslhdd.part16.rar
https://filejoker.net/726d0z5b5yi8/12yslhdd.part17.rar
https://filejoker.net/fq3f0ay4if1e/12yslhdd.part18.rar
https://filejoker.net/jj2qzz953str/12yslhdd.part19.rar
https://filejoker.net/f1j9vr4cajye/12yslhdd.part20.rar
https://filejoker.net/4htl9oriif8u/12yslhdd.part21.rar
https://filejoker.net/oxhwa5y2u81i/12yslhdd.part22.rar
https://filejoker.net/yhy33dc4mbj7/12yslhdd.part23.rar
https://filejoker.net/rasj8bcvxwrc/12yslhdd.part24.rar
https://filejoker.net/0d1d2amrk1lv/12yslhdd.part25.rar
https://filejoker.net/asl3oplponpo/12yslhdd.part26.rar
https://filejoker.net/6z1kjq4l1ixa/12yslhdd.part27.rar
https://filejoker.net/ropq5gkxrctm/12yslhdd.part28.rar
https://filejoker.net/6bpzkk0fbxbo/12yslhdd.part29.rar
https://filejoker.net/u1gtfecnmejf/12yslhdd.part30.rar
https://filejoker.net/yo9fvk1m9vp0/12yslhdd.part31.rar
https://filejoker.net/k3zzv57uzsvm/12yslhdd.part32.rar
https://filejoker.net/8lg366ckxejy/12yslhdd.part33.rar
https://filejoker.net/4yvj1zniyo4l/12yslhdd.part34.rar
https://filejoker.net/clf3nt04acfk/12yslhdd.part35.rar
https://filejoker.net/7ivqmr3ui4o1/12yslhdd.part36.rar
https://filejoker.net/r33sb54gp6f1/12yslhdd.part37.rar

pomposos

Mensajes : 1594
Fecha de inscripción : 24/10/2011

Ver perfil de usuario

Volver arriba Ir abajo

Ver el tema anterior Ver el tema siguiente Volver arriba

- Temas similares

 
Permisos de este foro:
No puedes responder a temas en este foro.