Cirkus columbia (DVDRip)(Español)(Comedia Drama)(2011)

Ver el tema anterior Ver el tema siguiente Ir abajo

Cirkus columbia (DVDRip)(Español)(Comedia Drama)(2011)

Mensaje  nueve93 el Dom Oct 30, 2011 12:36 pm





Ficha Tecnica

Título original: Cirkus Columbia
Año: 2010
Género: Drama
Reparto:Miki Manojlovic, Boris Ler, Mira Furlan, Jelena Stupljanin, Mario Knezovic, Milan Strljic, Svetislav Goncic, Almir Mehic, Ermin Bravo, Mirza Tanovic
Productora:Coproducción Bosnia - Herzegovina-Francia-Reino Unido-Alemania-Eslovenia-Bélgica-Serbia; 2006 / Art & Popcorn / Asap Films / Autonomous / Man's Films / Razor Film Produktion GmbH / Studio Maj
Director:Danis Tanovic
Guion:Danis Tanovic (Novela: Ivica Djikic)

Sinopsis

Los comunistas han perdido el poder y Divko Buntic vuelve a su pueblo a reclamar la casa familiar. Tras veinte años de exilio en Alemania, regresa, en su ostentoso Mercedes, con una novia jovencita, con Bonny, el gato negro de la suerte, y con los bolsillos llenos de marcos alemanes. Utiliza su dinero y sus relaciones para desahuciar a la fuerza a su esposa Lucija, de la que esta separado, pero hace lo posible por volver a ver a su hijo Martin, de veinte años. Ocupados en sus actividades cotidianas, los habitantes del pueblo hacen caso omiso de los rumores acerca de disturbios politicos de caracter secesionista. Para ellos resulta imposible imaginar que las dos regiones que siempre han formado Bosnia-Herzegovina puedan separarse algun dia.

Capturas



Codigo Pelicula

Spoiler:


General

Complete name : files/Cirkus.Columbia.DVDRip_nueve93.avi
Format : AVI
Format/Info : Audio Video Interleave
File size : 679 MiB
Duration : 1h 46mn
Overall bit rate : 892 Kbps
Writing application : MEncoder SVN-r22963
Writing library : MPlayer

Video

ID : 0
Format : MPEG-4 Visual
Format profile : Simple@L1
Format settings, BVOP : No
Format settings, QPel : No
Format settings, GMC : No warppoints
Format settings, Matrix : Default (H.263)
Codec ID : XVID
Codec ID/Hint : XviD
Duration : 1h 46mn
Bit rate : 752 Kbps
Width : 688 pixels
Height : 304 pixels
Display aspect ratio : 2.25:1
Frame rate : 25.000 fps
Color space : YUV
Chroma subsampling : 4:2:0
Bit depth : 8 bits
Scan type : Progressive
Bits/(Pixel*Frame) : 0.144
Stream size : 572 MiB (84%)
Writing library : Lavc51.40.2

Audio

ID : 1
Format : MPEG Audio
Format version : Version 1
Format profile : Layer 3
Codec ID : 55
Codec ID/Hint : MP3
Duration : 1h 46mn
Bit rate mode : Constant
Bit rate : 128 Kbps
Channel(s) : 2 channels
Sampling rate : 44.1 KHz
Stream size : 97.4 MiB (14%)
Alignment : Aligned on interleaves
Interleave, duration : 26 ms (0.65 video frame)
Interleave, preload duration : 522 ms





Código:
http://www.wupload.com/file/1744965876


nueve93

Mensajes : 98
Fecha de inscripción : 07/10/2011

Ver perfil de usuario

Volver arriba Ir abajo

Ver el tema anterior Ver el tema siguiente Volver arriba

- Temas similares

 
Permisos de este foro:
No puedes responder a temas en este foro.