Buscar
 
 

Resultados por:
 


Rechercher Búsqueda avanzada

Junio 2017
LunMarMiérJueVieSábDom
   1234
567891011
12131415161718
19202122232425
2627282930  

Calendario Calendario

Compañeros

Crear foro



Compañeros

Crear foro




No conoces a Jack (DVDRip)(Comedia Drama)(Español)(2011)

Ver el tema anterior Ver el tema siguiente Ir abajo

No conoces a Jack (DVDRip)(Comedia Drama)(Español)(2011)

Mensaje  nueve93 el Dom Oct 30, 2011 12:26 pm





Ficha Tecnica

TÍTULO ORIGINAL You Don't Know Jack (TV)
AÑO 2010
DURACIÓN 34 min.
PAÍS USA
DIRECTOR Barry Levinson
GUIÓN Adam Mazer (Libro: Neal Nicol, Harry Wylie)
MÚSICA Marcelo Zarvos
FOTOGRAFÍA Eigil Bryld
REPARTO Al Pacino, Danny Huston, John Goodman, Brenda Vaccaro, Susan Sarandon, Cotter Smith, James Urbaniak, Eric Lange
PRODUCTORA HBO Films / Bee Holder Productions / Royal Oak Films
WEB OFICIAL http://www.hbo.com/movies/you-dont-know-jack/index.html
PREMIOS 2010: Globo de Oro a Mejor Actor. Nominada a Mejor Miniserie o TV-movie.
2010: 2 premios Emmy: Actor, Guión. 13 nominaciones incluyendo Mejor TV-movie.
GÉNERO Drama | Biográfico. Medicina. Drama judicial

Sinopsis

Biopic del doctor Jack Kevorkian, más conocido como "Doctor Muerte". Desde principios de los años 90 hasta hoy, fue la principal figura pública en el debate sobre la eutanasia. Al mismo tiempo que se implicó en más de 130 casos de suicido asistido, Kevorkian protagonizó un frenesí mediático con interminables batallas legales en las que defendía el derecho a morir de sus pacientes.

Capturas



Codigo Pelicula

Spoiler:


General

Complete name : files/No.Conoces.a.Jack.DVDRip.AC3_HDTV_nueve93.avi
Format : AVI
Format/Info : Audio Video Interleave
File size : 749 MiB
Duration : 2h 8mn
Overall bit rate : 812 Kbps
Writing application : MEncoder SVN-r22963
Writing library : MPlayer

Video

ID : 0
Format : MPEG-4 Visual
Format profile : Simple@L1
Format settings, BVOP : No
Format settings, QPel : No
Format settings, GMC : No warppoints
Format settings, Matrix : Default (H.263)
Codec ID : XVID
Codec ID/Hint : XviD
Duration : 2h 8mn
Bit rate : 672 Kbps
Width : 720 pixels
Height : 384 pixels
Display aspect ratio : 1.875
Frame rate : 25.000 fps
Color space : YUV
Chroma subsampling : 4:2:0
Bit depth : 8 bits
Scan type : Progressive
Bits/(Pixel*Frame) : 0.097
Stream size : 620 MiB (83%)
Writing library : Lavc51.40.2

Audio

ID : 1
Format : MPEG Audio
Format version : Version 1
Format profile : Layer 3
Codec ID : 55
Codec ID/Hint : MP3
Duration : 2h 8mn
Bit rate mode : Constant
Bit rate : 128 Kbps
Channel(s) : 2 channels
Sampling rate : 44.1 KHz
Stream size : 118 MiB (16%)
Alignment : Aligned on interleaves
Interleave, duration : 26 ms (0.65 video frame)
Interleave, preload duration : 522 ms




Código:
http://www.wupload.com/file/1744618226


nueve93

Mensajes : 98
Fecha de inscripción : 07/10/2011

Ver perfil de usuario

Volver arriba Ir abajo

Ver el tema anterior Ver el tema siguiente Volver arriba

- Temas similares

 
Permisos de este foro:
No puedes responder a temas en este foro.