Buscar
 
 

Resultados por:
 


Rechercher Búsqueda avanzada

Palabras claves

Últimos temas
Julio 2017
LunMarMiérJueVieSábDom
     12
3456789
10111213141516
17181920212223
24252627282930
31      

Calendario Calendario

Compañeros

Crear foro



Compañeros

Crear foro




The change-up (El cambiazo)(DVDRip)(Comedia)(Español latino)(2011)

Ver el tema anterior Ver el tema siguiente Ir abajo

The change-up (El cambiazo)(DVDRip)(Comedia)(Español latino)(2011)

Mensaje  nueve93 el Sáb Oct 29, 2011 11:45 am





Ficha Tecnica

TÍTULO ORIGINAL The Change-Up
AÑO 2011
DURACIÓN 112 min.
PAÍS USA
DIRECTOR David Dobkin
GUIÓN Jon Lucas, Scott Moore
MÚSICA John Debney
FOTOGRAFÍA Eric Alan Edwards
REPARTO Jason Bateman, Ryan Reynolds, Olivia Wilde, Alan Arkin, Leslie Mann
PRODUCTORA Universal Pictures / Original Film
GÉNERO Comedia

Sinopsis

Mitch (Ryan Reynolds) y Dave (Jason Bateman) eran amigos inseparables de niños y adolescentes, pero con el paso de los años, se han alejado. Dave es un abogado enganchado al trabajo, se ha casado y tiene tres hijos, pero Mitch sigue soltero, un hombre-niño que trabaja a veces y que nunca se ha atado a nada ni a nadie. Mitch cree que Dave lo tiene todo: una preciosa esposa llamada Jamie (Leslie Mann), unos niños que le adoran y un trabajo muy bien pagado en un prestigioso bufete. Dave cree que vivir como Mitch, sin estrés ni presión, sin obligaciones, es un auténtico sueño hecho realidad. Después de compartir una sonada borrachera, los mundos de Mitch y Dave se vuelven del revés cuando se despiertan en el cuerpo del otro y pierden los papeles a lo grande.

Capturas



Codigo Pelicula

Spoiler:


General

Complete name : files/The.Change.Up.2011.DvdRip.XviD.Lat_nueve93.avi
Format : AVI
Format/Info : Audio Video Interleave
File size : 745 MiB
Duration : 1h 52mn
Overall bit rate : 926 Kbps
Movie name : The.Change-Up .THEATRICAL.2011.DvdRip.XviD.Lat-YeZo74
Director : YeZo74
Encoded by : YeZo74 / YeZo74
Subject : YeZo74
Writing application : YeZoFT
Writing library : VirtualDub build 32618/release
Original source form/Name : YeZo74
Copyright : www.vagos.es / YeZo74
Comment : Ripeado, subido y posteado por YeZo74

Video

ID : 0
Format : MPEG-4 Visual
Format profile : Advanced Simple@L5
Format settings, BVOP : Yes
Format settings, QPel : No
Format settings, GMC : No warppoints
Format settings, Matrix : Default (H.263)
Muxing mode : Packed bitstream
Codec ID : XVID
Codec ID/Hint : XviD
Duration : 1h 52mn
Bit rate : 788 Kbps
Width : 640 pixels
Height : 266 pixels
Display aspect ratio : 2.40:1
Frame rate : 23.976 fps
Color space : YUV
Chroma subsampling : 4:2:0
Bit depth : 8 bits
Scan type : Progressive
Bits/(Pixel*Frame) : 0.193
Stream size : 635 MiB (85%)
Writing library : XviD 1.2.1 (UTC 2008-12-04)

Audio

ID : 1
Format : MPEG Audio
Format version : Version 1
Format profile : Layer 3
Mode : Joint stereo
Codec ID : 55
Codec ID/Hint : MP3
Duration : 1h 52mn
Bit rate mode : Constant
Bit rate : 128 Kbps
Channel(s) : 2 channels
Sampling rate : 48.0 KHz
Stream size : 103 MiB (14%)
Alignment : Split accross interleaves
Interleave, duration : 42 ms (1.00 video frame)
Interleave, preload duration : 500 ms
Writing library : LAME3.98.2





Código:
http://ul.to/bvx1l72y

http://www.wupload.com/file/1572790626


nueve93

Mensajes : 98
Fecha de inscripción : 07/10/2011

Ver perfil de usuario

Volver arriba Ir abajo

Ver el tema anterior Ver el tema siguiente Volver arriba

- Temas similares

 
Permisos de este foro:
No puedes responder a temas en este foro.