Buscar
 
 

Resultados por:
 


Rechercher Búsqueda avanzada

Palabras claves

Julio 2017
LunMarMiérJueVieSábDom
     12
3456789
10111213141516
17181920212223
24252627282930
31      

Calendario Calendario

Compañeros

Crear foro



Compañeros

Crear foro




Paranormal Activity 3 (TSCreener)(Terror)(Castellano)(2011)

Ver el tema anterior Ver el tema siguiente Ir abajo

Paranormal Activity 3 (TSCreener)(Terror)(Castellano)(2011)

Mensaje  nueve93 el Sáb Oct 29, 2011 5:01 am





Ficha Tecnica

Película: Paranormal activity 3.
Dirección: Henry Joost y Ariel Schulman.
País: USA. Año: 2011. Duración: 84 min.
Género: Terror.
Interpretación: Katie Featherston (Katie), Sprague Grayden (Kristi Rey), Lauren Bittner (Julie), Chloe Csengery (Katie joven), Christopher Nicholas Smith (Dennis), Jessica Tyler Brown (Kristi joven), Brian Boland (Daniel Rey), Dustin Ingram (Randy), Mark Fredrichs (Dr. Fredrichs).
Guion: Christopher B. Landon; basado en los personajes creados por Oren Peli. Producción: Jason Blum, Oren Peli y Steven Schneider. Fotografía: Magdalena Gorka Bonacorso. Montaje: Gregory Plotkin.
Diseño de producción: Jennifer Spence.
Vestuario: Leah Butler.
Distribuidora: Paramount Pictures Spain.
Estreno en USA: 21 Octubre 2011.
Estreno en España: 21 Octubre 2011.
Calificación por edades: No recomendada para menores de 16 años.


Sinopsis

Se trata de una precuela que nos cuenta los origenes del horror que envolvio a las hermanas Katie y Kristi Rey. La pelicula nos traslada a su infancia, hacia finales de los años ochenta, cuando ambas eran aun unas niñas y los fantasmas entraron en sus vidas.

Capturas



Codigo Pelicula

Spoiler:


General

Complete name : files/Paranormal_activity_3_TSScreener_nueve93.avi
Format : AVI
Format/Info : Audio Video Interleave
File size : 1.37 GiB
Duration : 1h 18mn
Overall bit rate : 2 491 Kbps
Writing application : VirtualDubMod 1.5.10.2 (build 2540/release)
Writing library : VirtualDubMod build 2540/release

Video

ID : 0
Format : MPEG-4 Visual
Format profile : Advanced Simple@L5
Format settings, BVOP : Yes
Format settings, QPel : No
Format settings, GMC : No warppoints
Format settings, Matrix : Custom
Codec ID : XVID
Codec ID/Hint : XviD
Duration : 1h 18mn
Bit rate : 2 225 Kbps
Width : 720 pixels
Height : 384 pixels
Display aspect ratio : 1.875
Frame rate : 25.000 fps
Color space : YUV
Chroma subsampling : 4:2:0
Bit depth : 8 bits
Scan type : Progressive
Bits/(Pixel*Frame) : 0.322
Stream size : 1.22 GiB (89%)
Writing library : XviD 58

Audio

ID : 1
Format : MPEG Audio
Format version : Version 1
Format profile : Layer 3
Codec ID : 55
Codec ID/Hint : MP3
Duration : 1h 18mn
Bit rate mode : Constant
Bit rate : 256 Kbps
Channel(s) : 2 channels
Sampling rate : 44.1 KHz
Stream size : 144 MiB (10%)
Alignment : Split accross interleaves
Interleave, duration : 40 ms (1.00 video frame)
Interleave, preload duration : 500 ms





Código:
http://www.wupload.com/file/1488904506


nueve93

Mensajes : 98
Fecha de inscripción : 07/10/2011

Ver perfil de usuario

Volver arriba Ir abajo

Ver el tema anterior Ver el tema siguiente Volver arriba

- Temas similares

 
Permisos de este foro:
No puedes responder a temas en este foro.