Buscar
 
 

Resultados por:
 


Rechercher Búsqueda avanzada

Palabras claves

Últimos temas
» V.A. Thunderdome Die Hard II (Digital Version) [2016]
Miér Jul 26, 2017 5:20 pm por pomposos

» V.A. The world music collection 200 Instrumental hits [2016]
Miér Jul 26, 2017 4:59 pm por pomposos

» V.A. We Are The Aliens [2017]
Miér Jul 26, 2017 4:38 pm por pomposos

» V.A. UK Top 40 Singles Chart [18.11.2016] [2016]
Miér Jul 26, 2017 4:17 pm por pomposos

» Hola amigo de esta comunidad
Miér Jul 26, 2017 3:59 pm por goku-hdrip

» V.A. Universal Groove (Compiled By DJ Ohkun) [2017]
Miér Jul 26, 2017 3:56 pm por pomposos

» V.A. Unlimited Deep House Collection Vol.1 [2017]
Miér Jul 26, 2017 3:35 pm por pomposos

» V.A. Unlimited Techno Selection Vol 3 [2017]
Miér Jul 26, 2017 3:14 pm por pomposos

» V.A. Uplifting Trance Sessions [Vol.1] [2017]
Miér Jul 26, 2017 2:53 pm por pomposos

Julio 2017
LunMarMiérJueVieSábDom
     12
3456789
10111213141516
17181920212223
24252627282930
31      

Calendario Calendario

Compañeros

Crear foro



Compañeros

Crear foro




Encerrada (DVDRip)(Terror)(Castellano)(2010)

Ver el tema anterior Ver el tema siguiente Ir abajo

Encerrada (DVDRip)(Terror)(Castellano)(2010)

Mensaje  nueve93 el Sáb Oct 29, 2011 4:26 am





Ficha Tecnica

TÍTULO ORIGINAL Confined (TV)
AÑO 2010
DURACIÓN 90 min. Sugerir trailer/video
DIRECTOR Andrew C. Erin
GUIÓN Kraig Wenman
MÚSICA Kevin Blumenfeld
FOTOGRAFÍA Mahlon Todd Williams
REPARTO Emma Caulfield, David James Elliott, Michael Hogan, Paul McGillion, Melanie Papalia
PRODUCTORA Coproduccion Canada-USA
GÉNERO: Terror,Intriga

Sinopsis

Michael y Victoria Peyton acaban de mudarse a un vecindario tranquilo. Todo parece perfecto, hasta que Victoria empieza a sospechar que hay alguien encerrado en el sotano de la casa de al lado

Capturas



Codigo Pelicula

Spoiler:


General

Complete name : files/Encerrada_[Confined._2010][DVDRip]_nueve93.avi
Format : AVI
Format/Info : Audio Video Interleave
File size : 737 MiB
Duration : 1h 24mn
Overall bit rate : 1 224 Kbps
Writing application : VirtualDubMod 1.5.1.1a (build 1155/release)
Writing library : VirtualDub build 32839/release

Video

ID : 0
Format : MPEG-4 Visual
Format profile : Advanced Simple@L5
Format settings, BVOP : Yes
Format settings, QPel : No
Format settings, GMC : No warppoints
Format settings, Matrix : Default (H.263)
Muxing mode : Packed bitstream
Codec ID : XVID
Codec ID/Hint : XviD
Duration : 1h 24mn
Bit rate : 1 023 Kbps
Width : 720 pixels
Height : 416 pixels
Display aspect ratio : 16:9
Frame rate : 25.000 fps
Color space : YUV
Chroma subsampling : 4:2:0
Bit depth : 8 bits
Scan type : Progressive
Bits/(Pixel*Frame) : 0.137
Stream size : 615 MiB (84%)
Writing library : XviD 64

Audio

ID : 1
Format : AC-3
Format/Info : Audio Coding 3
Mode extension : CM (complete main)
Codec ID : 2000
Duration : 1h 24mn
Bit rate mode : Constant
Bit rate : 192 Kbps
Channel(s) : 2 channels
Channel positions : Front: L R
Sampling rate : 48.0 KHz
Bit depth : 16 bits
Stream size : 116 MiB (16%)
Alignment : Aligned on interleaves
Interleave, duration : 40 ms (1.00 video frame)
Interleave, preload duration : 512 ms





Código:
http://www.wupload.com/file/1488187741

http://www.filesonic.com/file/2816460715


nueve93

Mensajes : 98
Fecha de inscripción : 07/10/2011

Ver perfil de usuario

Volver arriba Ir abajo

Ver el tema anterior Ver el tema siguiente Volver arriba

- Temas similares

 
Permisos de este foro:
No puedes responder a temas en este foro.