Buscar
 
 

Resultados por:
 


Rechercher Búsqueda avanzada

Últimos temas
» Novedades eBooks [23 11 2017][Multiformatos]
Ayer a las 5:32 am por nueve93

» Whore wife gets bbc creampie
Ayer a las 5:09 am por nueve93

» Incredible latina wife creampied by husbands best friend
Ayer a las 5:01 am por nueve93

» HORNY MILF CRAVE MASSIVE CREAPIE
Ayer a las 4:54 am por nueve93

» THE SEXIEST MILF BLOWJOB EVER
Ayer a las 4:45 am por nueve93

» JUST CUM INSIDE HER PUSSY - WHO IS THAT GIRL
Ayer a las 4:37 am por nueve93

» Pink satin pantyjob session
Ayer a las 4:29 am por nueve93

» Jerk off inside my blue marine pantyhose
Ayer a las 4:21 am por nueve93

» Park handjob
Ayer a las 4:12 am por nueve93

Noviembre 2017
LunMarMiérJueVieSábDom
  12345
6789101112
13141516171819
20212223242526
27282930   

Calendario Calendario

Compañeros

Crear foro



Compañeros

Crear foro




Win Win Ganamos Todos (HDRip)(Comedia)(Castellano)(2011)

Ver el tema anterior Ver el tema siguiente Ir abajo

Win Win Ganamos Todos (HDRip)(Comedia)(Castellano)(2011)

Mensaje  nueve93 el Sáb Oct 29, 2011 3:49 am





Ficha Tecnica

TÍTULO ORIGINAL Win Win
AÑO 2011
DURACIÓN 106 min.

DIRECTOR Thomas McCarthy
GUIÓN Thomas McCarthy (Historia: Thomas McCarthy, Joe Tiboni)
MÚSICA Lyle Workman
FOTOGRAFÍA Oliver Bokelberg

REPARTO Paul Giamatti, Amy Ryan, Jeffrey Tambor, Melanie Lynskey, Bobby Cannavale, Margo Martindale, Burt Young

GÉNERO Comedia. Drama | Comedia dramatica. Deporte. Wrestling. Cine independiente USA

Sinopsis

Mike Flaherty (Giamatti), un abogado sin demasiada suerte en su trabajo, dedica su tiempo libre a entrenar a los muchachos de una escuela de lucha libre. En un momento dado, Mike asume la defensa de un viejo cliente con la esperanza de mantenerse a flote y sacar de apuros a su familia. Sin embargo, cuando el nieto adolescente de su cliente, toda una promesa deportiva, escapa de casa y y se va con su abuelo, la vida de Mike dara un giro completo.

Capturas



Codigo Pelicula

Spoiler:


General

Complete name : files/Win.Win.HDRIp.Castellano_nueve93.avi
Format : AVI
Format/Info : Audio Video Interleave
File size : 1.66 GiB
Duration : 1h 41mn
Overall bit rate : 2 340 Kbps
Writing application : VirtualDubMod 1.5.10.2 (build 2540/release)
Writing library : VirtualDubMod build 2540/release

Video

ID : 0
Format : MPEG-4 Visual
Format profile : Advanced Simple@L5
Format settings, BVOP : Yes
Format settings, QPel : No
Format settings, GMC : No warppoints
Format settings, Matrix : Default (MPEG)
Codec ID : XVID
Codec ID/Hint : XviD
Duration : 1h 41mn
Bit rate : 1 947 Kbps
Width : 720 pixels
Height : 384 pixels
Display aspect ratio : 1.875
Frame rate : 25.000 fps
Original frame rate : 23.976 fps
Color space : YUV
Chroma subsampling : 4:2:0
Bit depth : 8 bits
Scan type : Progressive
Bits/(Pixel*Frame) : 0.282
Stream size : 1.38 GiB (83%)
Writing library : XviD 64

Audio

ID : 1
Format : AC-3
Format/Info : Audio Coding 3
Mode extension : CM (complete main)
Codec ID : 2000
Duration : 1h 41mn
Bit rate mode : Constant
Bit rate : 384 Kbps
Channel(s) : 6 channels
Channel positions : Front: L C R, Side: L R, LFE
Sampling rate : 48.0 KHz
Bit depth : 16 bits
Stream size : 279 MiB (16%)
Alignment : Split accross interleaves
Interleave, duration : 40 ms (1.00 video frame)
Interleave, preload duration : 500 ms




Código:
http://www.filesonic.com/file/2816120595

http://www.wupload.com/file/1487397211


nueve93

Mensajes : 243
Fecha de inscripción : 07/10/2011

Ver perfil de usuario

Volver arriba Ir abajo

Ver el tema anterior Ver el tema siguiente Volver arriba

- Temas similares

 
Permisos de este foro:
No puedes responder a temas en este foro.