Buscar
 
 

Resultados por:
 


Rechercher Búsqueda avanzada

Palabras claves

Últimos temas
» V.A. 90s Aerobics Super Hits [2016]
Vie Jul 21, 2017 10:11 am por pomposos

» V.A. Morphic Resonance Trip To The Stars [2017]
Vie Jul 21, 2017 9:50 am por pomposos

» V.A. Tomorrow is a Dream (Synthwave Mix) [2017]
Vie Jul 21, 2017 9:29 am por pomposos

» V.A. The Rise of the Synths EP 1 [2017]
Vie Jul 21, 2017 9:08 am por pomposos

» V.A. Big Love 20 from Love Radio (18.12.2016) [2016]
Vie Jul 21, 2017 8:47 am por pomposos

» V.A. Ascriliated [2017]
Vie Jul 21, 2017 8:26 am por pomposos

» V.A. Destinations Vol 4 Compiled By Cubixx [2017]
Vie Jul 21, 2017 8:05 am por pomposos

» V.A. Focus Me Lounge [2016]
Vie Jul 21, 2017 7:41 am por pomposos

» V.A. Blues Forever Vol.74 [2017]
Vie Jul 21, 2017 7:19 am por pomposos

Julio 2017
LunMarMiérJueVieSábDom
     12
3456789
10111213141516
17181920212223
24252627282930
31      

Calendario Calendario

Compañeros

Crear foro



Compañeros

Crear foro




Larry Crowne, Nunca Es Tarde (BRSCreener HD 720p)(Comedia)(Castellano)(2011)

Ver el tema anterior Ver el tema siguiente Ir abajo

Larry Crowne, Nunca Es Tarde (BRSCreener HD 720p)(Comedia)(Castellano)(2011)

Mensaje  nueve93 el Sáb Oct 29, 2011 3:31 am





Ficha Tecnica

TÍTULO ORIGINAL: Larry Crowne.
AÑO: 2011
GENERO: Comedia, drama, romance.
REPARTO: Tom Hanks (Larry Crowne), Julia Roberts (Mercedes Tainot), Bryan Cranston (Dean Tainot), Taraji P. Henson (BÂ’Ella), Wilmer Valderrama (Dell Gordo), Rob Riggle, Cedric the Entertainer (Lamar), Gugu Mbatha-Raw (Talia), Rami Malek (Steve Dibiasi), Pam Grier (Frances), Nia Vardalos (voz de Map Genie).

Sinopsis

Hasta que fue despedido, el afable y amigable Larry Crowne era un lider de primera en una gran compañia, donde trabajo desde que salio de la Marina. Con una hipoteca disparatada, por una vivienda devaluada, y sin saber que hacer con tantos dias libres, de repente, Larry sigue los consejos de su amigos y vecinos y se dirige a una universidad local para volver a empezar. En la Universidad Comunitaria de East Valley, Larry se convierte en parte de un pintoresco grupo de estudiantes que se mueven en vespa. Todos ellos estan intentando ganarse un futuro mejor. Para su propio asombro, Larry empieza a sentirse atraido por su profesora, Mercedes Tainot, que ha perdido toda la pasion, tanto por la enseñanza como por el muerto de hambre de su marido. Mercedes no puede negar que los cambios en Larry son una inspiracion, ni tampoco su creciente atraccion por su alumno de mediana edad, quien esta sufriendo una transformacion fascinante. Un hombre simple, que tiene todas las razones del mundo para pensar que su vida se ha estancado, acabara aprendiendo una leccion inesperada: cuando crees que todo lo que merece la pena ya ha pasado, es posible que descubras tu verdadera razon de ser.

Capturas



Codigo Pelicula

Spoiler:


General

Complete name : files/Larry.Crowne.BRSCR.720p.Castellano_nueve93.avi
Format : AVI
Format/Info : Audio Video Interleave
Format profile : OpenDML
File size : 2.23 GiB
Duration : 1h 38mn
Overall bit rate : 3 241 Kbps
Writing application : VirtualDubMod 1.5.10.2 (build 2540/release)
Writing library : VirtualDubMod build 2540/release

Video

ID : 0
Format : MPEG-4 Visual
Format profile : Advanced Simple@L5
Format settings, BVOP : Yes
Format settings, QPel : No
Format settings, GMC : No warppoints
Format settings, Matrix : Default (H.263)
Muxing mode : Packed bitstream
Codec ID : XVID
Codec ID/Hint : XviD
Duration : 1h 38mn
Bit rate : 3 102 Kbps
Width : 1 280 pixels
Height : 536 pixels
Display aspect ratio : 2.35:1
Frame rate : 23.976 fps
Color space : YUV
Chroma subsampling : 4:2:0
Bit depth : 8 bits
Scan type : Progressive
Bits/(Pixel*Frame) : 0.189
Stream size : 2.14 GiB (96%)
Writing library : XviD 63

Audio

ID : 1
Format : MPEG Audio
Format version : Version 1
Format profile : Layer 3
Codec ID : 55
Codec ID/Hint : MP3
Duration : 1h 38mn
Bit rate mode : Constant
Bit rate : 128 Kbps
Channel(s) : 2 channels
Sampling rate : 44.1 KHz
Video delay : 19ms
Stream size : 90.0 MiB (4%)
Alignment : Split accross interleaves
Interleave, duration : 42 ms (1.00 video frame)
Interleave, preload duration : 500 ms
Writing library : LAMELAME





Código:
http://ul.to/cjzqgk1k
http://ul.to/q4e5djb7
http://ul.to/d1d0pqw8

http://www.wupload.com/file/1480065741
http://www.wupload.com/file/1474496286
http://www.wupload.com/file/1473810196

http://www.filesonic.com/file/2816004295/Larry.Crowne.BRSCR.720p.Castellano_nueve93.avi.part1.rar
http://www.filesonic.com/file/2816004195/Larry.Crowne.BRSCR.720p.Castellano_nueve93.avi.part2.rar
http://www.filesonic.com/file/2815998085/Larry.Crowne.BRSCR.72



nueve93

Mensajes : 98
Fecha de inscripción : 07/10/2011

Ver perfil de usuario

Volver arriba Ir abajo

Ver el tema anterior Ver el tema siguiente Volver arriba

- Temas similares

 
Permisos de este foro:
No puedes responder a temas en este foro.