Buscar
 
 

Resultados por:
 


Rechercher Búsqueda avanzada

Palabras claves

Julio 2017
LunMarMiérJueVieSábDom
     12
3456789
10111213141516
17181920212223
24252627282930
31      

Calendario Calendario

Compañeros

Crear foro



Compañeros

Crear foro




Siempre El Mismo Dia (BRSCreener)(comedia)(Español)(2011)

Ver el tema anterior Ver el tema siguiente Ir abajo

Siempre El Mismo Dia (BRSCreener)(comedia)(Español)(2011)

Mensaje  nueve93 el Jue Oct 27, 2011 3:00 pm





Ficha Tecnica

Director: Lone Scherfig
Productores: Color Force, Film Four, Random House Films
Guionistas: David Nicholls
Actores: Patricia Clarkson, Anne Hathaway, Romola Garai, Jim Sturgess, Rafe Spall
Genero: Comedia/Drama
Pais: Estados Unidos
Duracion:108 min.
Año: 2011

Sinopsis

Veinte años. Dos personas...Despues de pasar un dia juntos, el 15 de julio de 1988, cuando ambos se licenciaron en la universidad, Emma Morley (Anne Hathaway) y Dexter Mayhew (Jim Sturgess) traban una amistad que durara toda la vida. Ella es una chica de clase trabajadora, que tiene principios y ambiciones, y sueña con mejorar el mundo. Él es un seductor adinerado que sueña con convertir el mundo en su patio de recreo. Somos testigos de momentos clave de su relacion en varios reencuentros, siempre el 15 de julio, durante 20 años. Juntos y por separado vemos a Dex y a Em a traves de su amistad y sus discusiones, esperanzas y oportunidades perdidas, risas y lagrimas. En algun momento de su viaje, descubren que lo que buscaban y esperaban siempre habia estado al alcance de la mano. Al entender el verdadero significado de aquel dia de 1988, acaban aceptando el amor que les ofrece la vida.

Capturas



Codigo Pelicula

Spoiler:


General

Complete name : files/One.Day.BRSCr.Castellano_nueve93.avi
Format : AVI
Format/Info : Audio Video Interleave
File size : 1.32 GiB
Duration : 1h 47mn
Overall bit rate : 1 762 Kbps
Writing application : VirtualDubMod 1.5.10.2 (build 2540/release)
Writing library : VirtualDubMod build 2540/release

Video

ID : 0
Format : MPEG-4 Visual
Format profile : Advanced Simple@L5
Format settings, BVOP : Yes
Format settings, QPel : No
Format settings, GMC : No warppoints
Format settings, Matrix : Default (H.263)
Codec ID : XVID
Codec ID/Hint : XviD
Duration : 1h 47mn
Bit rate : 1 497 Kbps
Width : 720 pixels
Height : 304 pixels
Display aspect ratio : 2.35:1
Frame rate : 24.000 fps
Color space : YUV
Chroma subsampling : 4:2:0
Bit depth : 8 bits
Scan type : Progressive
Bits/(Pixel*Frame) : 0.285
Stream size : 1.12 GiB (85%)
Writing library : XviD 1.2.1 (UTC 2008-12-04)

Audio

ID : 1
Format : AC-3
Format/Info : Audio Coding 3
Mode extension : CM (complete main)
Codec ID : 2000
Duration : 1h 47mn
Bit rate mode : Constant
Bit rate : 256 Kbps
Channel(s) : 2 channels
Channel positions : Front: L R
Sampling rate : 44.1 KHz
Bit depth : 16 bits
Stream size : 196 MiB (15%)
Alignment : Split accross interleaves
Interleave, duration : 42 ms (1.00 video frame)
Interleave, preload duration : 500 ms




Código:
http://www.wupload.com/file/1280871556

http://www.filesonic.com/file/2755737495/One.Day.BRSCr.Castellano_nueve93.avi



nueve93

Mensajes : 98
Fecha de inscripción : 07/10/2011

Ver perfil de usuario

Volver arriba Ir abajo

Ver el tema anterior Ver el tema siguiente Volver arriba

- Temas similares

 
Permisos de este foro:
No puedes responder a temas en este foro.