Buscar
 
 

Resultados por:
 


Rechercher Búsqueda avanzada

Noviembre 2017
LunMarMiérJueVieSábDom
  12345
6789101112
13141516171819
20212223242526
27282930   

Calendario Calendario

Compañeros

Crear foro



Compañeros

Crear foro




Margin Call (2011) [BRscreener 720][Español][Thriller]

Ver el tema anterior Ver el tema siguiente Ir abajo

Margin Call (2011) [BRscreener 720][Español][Thriller]

Mensaje  nueve93 el Dom Oct 23, 2011 5:37 pm





Ficha Tecnica

Título original: Margin Call
Dirección: J.C. Chandor
País: Estados Unidos
Año: 2011
Duración: 105 min.
Género: Thriller, Drama

Reparto: Kevin Spacey (Sam Rogers), Paul Bettany (Will), Jeremy Irons (John Tuld), Zachary Quinto (Peter Sullivan), Penn Badgley (Seth), Demi Moore (Sarah), Mary McDonnell (Mary), Stanley Tucci (Eric Dale), Simon Baker (Jared).

Producción: Michael Benaroya, Neal Dodson, Zachary Quinto, Robert Ogdent Barnum, Corey Moosa y Joe Jenckes.
Distribuidora: Wanda Visión S.A
Productora: Benaroya Pictures, Before The Door Pictures, Washington Square Films, Margin Call
Fotografía: Frank G. DeMarco
Guión: J.C. Chandor
Montaje: Pete Beaudreau
Música: Nathan Larson

Sinopsis

Las primeras 24 horas de la caída más grave de la crisis financiera son el momento en el que se sitúa esta historia, desarrollada siguiendo a las personas más influyentes de un banco de inversión. Dirigida por J.C.Chandor, la película cuenta con un elenco de lujo que incluye a Kevin Spacey, Paul Bettany o Jeremy Irons, entre muchos otros, y pretende analizar un momento económico contemporáneo aterrador comprobando quiénes estaban avisados de lo que ocurriría o hasta dónde estamos dispuestos a llegar en busca del propio beneficio.

El filme toma su nombre de un concepto muy utilizado en el mundo de las finanzas, el 'margin call', y que hace referencia al requerimiento que realiza un bróker a sus clientes para que estos aumenten las garantías entorno a sus operaciones de crédito.

Capturas



Codigo Pelicula

Spoiler:


General

Complete name : files/M4rg1_nueve93.avi
Format : AVI
Format/Info : Audio Video Interleave
File size : 1.74 GiB
Duration : 1h 42mn
Overall bit rate : 2 435 Kbps
Writing application : VirtualDubMod 1.5.10.2 (build 2540/release)
Writing library : VirtualDubMod build 2540/release

Video

ID : 0
Format : MPEG-4 Visual
Format profile : Advanced Simple@L5
Format settings, BVOP : Yes
Format settings, QPel : No
Format settings, GMC : No warppoints
Format settings, Matrix : Default (H.263)
Codec ID : XVID
Codec ID/Hint : XviD
Duration : 1h 42mn
Bit rate : 2 297 Kbps
Width : 1 280 pixels
Height : 688 pixels
Display aspect ratio : 1.860
Frame rate : 25.000 fps
Original frame rate : 24.000 fps
Color space : YUV
Chroma subsampling : 4:2:0
Bit depth : 8 bits
Scan type : Progressive
Bits/(Pixel*Frame) : 0.104
Stream size : 1.64 GiB (94%)
Writing library : XviD 1.2.1 (UTC 2008-12-04)

Audio

ID : 1
Format : MPEG Audio
Format version : Version 1
Format profile : Layer 3
Mode : Joint stereo
Mode extension : MS Stereo
Codec ID : 55
Codec ID/Hint : MP3
Duration : 1h 42mn
Bit rate mode : Constant
Bit rate : 128 Kbps
Channel(s) : 2 channels
Sampling rate : 44.1 KHz
Stream size : 93.5 MiB (5%)
Alignment : Split accross interleaves
Interleave, duration : 40 ms (1.00 video frame)
Interleave, preload duration : 500 ms
Writing library : LAME3.98r
Encoding settings : -m j -V 4 -q 3 -lowpass 17 -b 128



Detalles de descarga

Calidad: BRscreener
Idioma: Castellano
Tamaño: 1,81 GB
Duración: 1 h. y 45 min.



Código:
http://www.filesonic.com/file/2707549934/M4rg1_nueve93.avi.part1.rar
http://www.filesonic.com/file/2707549984/M4rg1_nueve93.avi.part2.rar

http://www.wupload.com/file/902454596
http://www.wupload.com/file/902433536


nueve93

Mensajes : 215
Fecha de inscripción : 07/10/2011

Ver perfil de usuario

Volver arriba Ir abajo

Ver el tema anterior Ver el tema siguiente Volver arriba


 
Permisos de este foro:
No puedes responder a temas en este foro.